ML
     
  Уважаемый Гость!
Вы можете поддержать проект и зарегистрироваться у наших партнеров - онлайн-стратегия MyLands. При регистрации в игре Вы получите код, который сможете активировать после регистрации на pirat.ca и получить 1000 дублонов.

Ваш код:
f612af22ea70acf5cbe90707ac5a076d215f8f7f
 
     

Крейцерова соната (Софья Милькина, Михаил Швейцер) [1987 г., драма, мелодрама, DVDRip-AVC]

Ответить на тему
 
Автор
Сообщение

Пост 15-Окт-2016 03:49

[Q] 

somik

Легенда

-Крейцерова соната-- Производство: СССР, Мосфильм
Режиссер: Софья Милькина, Михаил Швейцер
Жанр: драма, мелодрама
Год выпуска: 1987 г.
Продолжительность: 02:29:08
Российская премьера: 4 января 1988
В ролях: Олег Янковский, Александр Трофимов, Ирина Селезнева, Дмитрий Покровский, Алла Демидова, Лидия Федосеева-Шукшина, Александр Калягин, Михаил Глузский, Ольга Токарева, Сергей Скрипкин, Александр Котов, Евгений Данчевский, Нина Агапова, Екатерина Куравлева, Анна Тхостова, Вера Бурлакова, Елена Водолазова, Степан Крылов, Денис Карлин, Катя Куслиева, Марина Антропова, Наташа Коренченко, Витя Цветнов и др.-Описание: Сложные морально-нравственные проблемы, которые семейная жизнь ставит перед своими героями, делают фильм созвучным не только времени создания повести. В киноверсии, как и в ее первооснове, сталкиваются разные временные пласты, она остросюжетна и динамична, интересна и своеобразна по кинематографическому решению.-Сэмпл КиноПоиск
Качество видео: DVDRip-AVC
Контейнер: MKV
Видео кодек: MPEG4 AVC
Аудио кодек: AC3
Видео: 720x536, ~2024 kbps, 5,000 кадров/сек
Аудио: AC3, 2 ch, 192 kbps, 48,0 kHz
Cубтитры: отсутствуют
Подписываюсь под каждым словом Льва Николаевича.
Говоря честно, рассказ Льва Толстого «Крейцерова соната» является для меня самым ценным и дорогим художественным произведением. Дело в том, что он полностью отражает мои взгляды на жизнь и служит для меня неким жизненным кредо.
И вот, с трепетом я посмотрел одноимённую экранизацию. Посмотрел дважды. Признаюсь, сначала видение режиссёра для меня оказалось чуждым, но, тем не менее, фильм оставил только положительный след.
А уже второй просмотр сопровождался нескрываемым, эксплицитным удовольствием. Надо сказать, что создателям удалось показать всё очень близко к тексту, за что отдельная благодарность.
Фильм снят очень оригинально, необычно. Он состоит из двух частей. Первая длится около 80 минут. Остальное время уделено второй части. События развиваются ретроспективно. Постановка фильма удивляет своей простотой и глубиной. Складывается полное ощущение, что ты находишься в том же купе, где едут герои, и невольно подслушиваешь их разговор. К слову сказать, в актёрах совершенно не угадываются актёры — только живые люди. Самое, что ни на есть, естественное поведение в кадре. Поразительно!
И главное, что надобно отметить, это идея произведения. Автор совершенно точно, тонко и искусно выставил напоказ всю правду! А правда-то очень горькая, и большинство, думаю, не примут её, так же, как не принял её попутчик Позднышева. Да и сам-то Позднышев узнал эту правду слишком поздно, о чём и говорит его фамилия.
Это замечательный интеллектуальный фильм, совсем не развлекательный, для многих — скучный.
Я же ставлю наивысший балл не столько за фильм (хотя, он очень сильный, и заслуживает 8 или 9), сколько за его идею и мораль!
10 из 10
Общее
Уникальный идентификатор : 210212062566913736228344298578736002958 (0x9E255EDF7047155EACBB62E4744B378E)
Полное имя : F:\Крейцерова соната\Крейцерова соната.1987.DVDRip.[pirat.ca]\Крейцерова соната (1 серия).mkv
Формат : Matroska
Версия формата : Version 2
Размер файла : 1,29 Гбайт
Продолжительность : 1 ч. 21 м.
Общий поток : 2261 Кбит/сек
Дата кодирования : UTC 2016-10-14 23:28:28
Программа кодирования : mkvmerge v5.3.0 ('I could have danced') built on Feb 9 2012 10:38:07
Библиотека кодирования : libebml v1.2.3 + libmatroska v1.3.0
Видео
Идентификатор : 1
Формат : AVC
Формат/Информация : Advanced Video Codec
Профиль формата : [email protected]
Параметр CABAC формата : Да
Параметр ReFrames формата : 4 кадра
Идентификатор кодека : V_MPEG4/ISO/AVC
Продолжительность : 1 ч. 21 м.
Битрейт : 2024 Кбит/сек
Ширина : 720 пикселей
Высота : 536 пикселей
Соотношение сторон : 4:3
Режим частоты кадров : Постоянный
Частота кадров : 25,000 кадров/сек
Цветовое пространство : YUV
Субдискретизация насыщенности : 4:2:0
Битовая глубина : 8 бит
Тип развёртки : Прогрессивная
Бит/(Пиксели*Кадры) : 0.210
Размер потока : 1,16 Гбайт (90%)
Заголовок : Крейцерова соната_1 серия
Библиотека кодирования : x264 core 130 r2273 b3065e6
Настройки программы : cabac=1 / ref=3 / deblock=1:0:0 / analyse=0x3:0x113 / me=hex / subme=7 / psy=1 / psy_rd=1.00:0.15 / mixed_ref=1 / me_range=16 / chroma_me=1 / trellis=2 / 8x8dct=1 / cqm=0 / deadzone=21,11 / fast_pskip=1 / chroma_qp_offset=-3 / threads=12 / lookahead_threads=2 / sliced_threads=0 / nr=0 / decimate=0 / interlaced=0 / bluray_compat=0 / constrained_intra=0 / bframes=3 / b_pyramid=2 / b_adapt=1 / b_bias=0 / direct=1 / weightb=1 / open_gop=0 / weightp=2 / keyint=240 / keyint_min=23 / scenecut=40 / intra_refresh=0 / rc_lookahead=40 / rc=crf / mbtree=1 / crf=16.5 / qcomp=0.60 / qpmin=0 / qpmax=69 / qpstep=4 / ip_ratio=1.40 / aq=1:1.00
Язык : Russian
Default : Да
Forced : Нет
Аудио
Идентификатор : 2
Формат : AC-3
Формат/Информация : Audio Coding 3
Расширение режима : CM (complete main)
Параметр Endianness формата : Big
Идентификатор кодека : A_AC3
Продолжительность : 1 ч. 21 м.
Вид битрейта : Постоянный
Битрейт : 192 Кбит/сек
Каналы : 2 канала
Расположение каналов : Front: L R
Частота : 48,0 КГц
Частота кадров : 31,250 кадров/сек (1536 spf)
Метод сжатия : С потерями
Размер потока : 113 Мбайт (8%)
Заголовок : AC3, 2 ch, 192 kbps
Язык : Russian
Default : Да
Forced : Нет
Download / Скачать

Хотите скачать бесплатно? Зарегистрируйтесь на сайте (ссылка на регистрацию). Pirat.ca - самый быстрый торрент трекер в рунете!

Как скачивать  ·   Что такое торрент  ·   Рейтинг и ограничения

Показать сообщения:    
Ответить на тему

Текущее время: Сегодня 00:25

Часовой пояс: GMT + 4



Вы не можете начинать темы
Вы не можете отвечать на сообщения
Вы не можете редактировать свои сообщения
Вы не можете удалять свои сообщения
Вы не можете голосовать в опросах
Вы не можете прикреплять файлы к сообщениям
Вы не можете скачивать файлы

▼ Вниз