ML
     
  Уважаемый Гость!
Вы можете поддержать проект и зарегистрироваться у наших партнеров - онлайн-стратегия MyLands. При регистрации в игре Вы получите код, который сможете активировать после регистрации на pirat.ca и получить 1000 дублонов.

Ваш код:
11f49771fdf057c9d51610e4a0925c3b46ddb655
 
     

Таинственная стена (Ирина Поволоцкая, Михаил Садкович) [1967 г., Фантастика, DVDRip]

Ответить на тему
 
Автор
Сообщение

Пост 18-Окт-2016 15:58

[Q] 

somik

Легенда

-Таинственная стена-- Производство: СССР, Мосфильм
Режиссер: Ирина Поволоцкая, Михаил Садкович
Жанр: Фантастика
Год выпуска: 1967 г.
Продолжительность: 01:14:43
В ролях: Андрей Миронов, Николай Бармин, Сергей Голованов, Константин Желдин, Александр (Сандро) Жоржолиани, Александр Кайдановский, Лев Круглый, Татьяна Лаврова, Юрий Леонидов, Дмитрий Масанов, Валентин Никулин, Надежда Самсонова-Гурзо, Тамара Совчи, Георгиос Совчис, Георгий Тусузов, Евгений Шутов-Описание: Появившаяся в тайге туманная пелена притягивает внимание людей и вызывает видения из прошлого. Ученый Ломов, занимающийся исследованием таинственной стены, считает это явление посланием далекой цивилизации и ищет способы общения с нею. Но стена строптива, и каждая попытка ученого заканчивается новым поражением и новыми жертвами…-Сэмпл КиноПоиск
Качество видео: DVDRip
Контейнер: AVI
Видео кодек: XviD
Аудио кодек: MP3
Видео: 576x432 (1.33:1), 25 fps, DivX Codec 6.1.1 ~1299 kbps avg, 0.21 bit/pixel
Аудио: 48 kHz, MPEG Layer 3, 2 ch, ~128.00 kbps avg
Cубтитры: отсутствуют
«Таинственная стена» — необычная фантастика. Мне лично эта картина напомнила «Солярис» и «Сталкер» Тарковского и, что следует отметить — данный фильм снимался намного раньше, чем шедевры Тарковского. Если бы эти два фильма не были экранизациями произведений, я бы точно сказал, что «Таинственная стена» вдохновила Андрея Арсеньевича на создание его картина.
Что касательно самого фильма… Такая фантастика мне нравится! вроде бы фантастическое событие не представлено паранормальным, необычным или еще чем-то в этом роде. Стена, вокруг которой и строится весь фильм — это нечто неизведанное и неподвластное человеческому разуму. И эту стену не надо понимать буквально. Это своеобразная граница, за которую не дозволено пройти человечеству и любые попытки подойти к ней оказываются тщетными и что за этой стеной тоже является тайной. Также эта стена может быть своеобразным вольером, клеткой для людей и неизвестные существа наблюдают за людьми — за их поведением в неволе; и на эту мысль тоже наводит один из эпизодов фильма. А может быть, стена — это высший разум, непонятно откуда появившийся и не позволяющий людям изучить себя, но активно изучающий нас самих через сновидения и моделируя в мозгу человека определенные образы. А может быть стена — это послание древней цивилизации своим будущим потомкам?
Все эти версии представлены в фильме и, причем, на каждый довод имеется доказательство, довольно веское и неоспоримое и единственный факт, который опровергает доказательство той или иной теории, что другая теория имеет такие же мощные доводы!
Ну и порадовал сюрреалистичный конец этой картины, который вряд ли пояснит существование этой стены, но даст ответы на некоторые вопросы.
Смысл, который я увидел в картине — человек, это настолько неконтролируемое создание, которое не может долгое время находится в замкнутом пространстве. Человеку не нравится, когда его свободу каким-либо образом нарушают и он будет бороться за свою свободу с любой силой, даже той, которая ему неподвластна. Человек не может жить в вечной загадке, не познав ее природу и сущность, иными словами, переходя на обычную жизнь — человек не может спокойно жить в стране, которая его ущемляет, ограничивает, отталкивает от себя и т. п. Все гениальное просто. Кто-то может увидеть здесь критику СССР, но тогда я сомневаюсь, что герои пытались бы так отчаянно выбраться обратно в свою страну с неподконтрольной и непонятной территории.
Фильм не гениальный, но очень близко к этому. жаль, что у него такая низкая оценка и что так мало людей вообще знают о его существовании.
Общее
Полное имя : F:\Таинственная стена\Tainstvennaja stena.1967.DVDRip.[pirat.ca].avi
Формат : AVI
Формат/Информация : Audio Video Interleave
Размер файла : 702 Мбайт
Продолжительность : 1 ч. 14 м.
Общий поток : 1314 Кбит/сек
Видео
Идентификатор : 0
Формат : MPEG-4 Visual
Параметр BVOP формата : 1
Параметр QPel формата : Нет
Параметр GMC формата : Без точки перехода
Параметр матрицы формата : Default (H.263)
Режим смешивания : Сжатый битовый поток
Идентификатор кодека : DX50
Идентификатор кодека/Подсказка : DivX 5
Продолжительность : 1 ч. 14 м.
Битрейт : 1173 Кбит/сек
Ширина : 576 пикселей
Высота : 432 пикселя
Соотношение сторон : 4:3
Частота кадров : 25,000 кадров/сек
Цветовое пространство : YUV
Субдискретизация насыщенности : 4:2:0
Битовая глубина : 8 бит
Тип развёртки : Прогрессивная
Метод сжатия : С потерями
Бит/(Пиксели*Кадры) : 0.189
Размер потока : 627 Мбайт (89%)
Заголовок : DVD3VIDEO
Библиотека кодирования : DivX 6.1.1 (UTC 2006-02-01)
Аудио
Идентификатор : 1
Формат : MPEG Audio
Версия формата : Version 1
Профиль формата : Layer 3
Режим : Joint stereo
Расширение режима : MS Stereo
Идентификатор кодека : 55
Идентификатор кодека/Подсказка : MP3
Продолжительность : 1 ч. 14 м.
Вид битрейта : Постоянный
Битрейт : 128 Кбит/сек
Каналы : 2 канала
Частота : 48,0 КГц
Метод сжатия : С потерями
Размер потока : 68,4 Мбайт (10%)
Выравнивание : Разделение по промежуткам
Продолжительность промежутка : 24 мс. (0,60 видеокадр)
Время предзагрузки промежутка : 47 мс.
Заголовок : DVD3AUDIO00
Download / Скачать

Хотите скачать бесплатно? Зарегистрируйтесь на сайте (ссылка на регистрацию). Pirat.ca - самый быстрый торрент трекер в рунете!

Как скачивать  ·   Что такое торрент  ·   Рейтинг и ограничения

pvm

Корсар

Пост 19-Окт-2016 23:23 (спустя 1 день 7 часов)

[Q] 

Вспоминал, вспоминал ну не помню такой фильм.
[Профиль]  [ЛС] 

sergey718

Корсар

Пост 20-Окт-2016 18:20 (спустя 18 часов)

[Q] 

аналогично,думал всю советскую фантастику видел-ан нет! тем более фильмы с Андреем Мироновым! забираю в коллекцию! Лови бочку
[Профиль]  [ЛС] 
Показать сообщения:    
Ответить на тему

Текущее время: Сегодня 03:14

Часовой пояс: GMT + 4



Вы не можете начинать темы
Вы не можете отвечать на сообщения
Вы не можете редактировать свои сообщения
Вы не можете удалять свои сообщения
Вы не можете голосовать в опросах
Вы не можете прикреплять файлы к сообщениям
Вы не можете скачивать файлы

▼ Вниз