ML
     
  Уважаемый Гость!
Вы можете поддержать проект и зарегистрироваться у наших партнеров - онлайн-стратегия MyLands. При регистрации в игре Вы получите код, который сможете активировать после регистрации на pirat.ca и получить 1000 дублонов.

Ваш код:
4fbd9898b6f10799a3e8edf60f31febd2bc15453
 
     

Стакан воды (Юлий Карасик) [1979 г., мелодрама, комедия, история, DVDRip]

Ответить на тему
 
Автор
Сообщение

Пост 18-Окт-2016 16:34

[Q] 

somik

Легенда

-Стакан воды-- Производство: СССР, Мосфильм
Режиссер: Юлий Карасик
Жанр: мелодрама, комедия, история
Год выпуска: 1979 г.
Продолжительность: 02:08:24
Российская премьера: 25 августа 1979
Дата выхода DVD: 30 марта 2010, «Lizard Cinema Trade»
В ролях: Кирилл Лавров, Алла Демидова, Наталия Белохвостикова, Светлана Смирнова, Петерис Гаудиньш, Игорь Дмитриев, Юрис Стренга, Александр Вокач, Нина Веселовская, Григорий Всеволодов, Николай Ерофеев, Константин Чистяков, Анна Фроловцева, Лариса Жуковская, Светлана Данильченко, Михаил Лоо-Описание: Когда маленькое государство оказывается под угрозой захвата со стороны намного более сильного, спасти его может только одно: появление конкурента, сравнимого с захватчиком.
В изящной и остроумной пьесе Скриба военные действия разворачиваются вокруг молодого офицера, в которого влюбились одновременно скромная продавщица ювелирного магазина, всесильная герцогиня Мальборо и сама королева Англии.-Сэмпл КиноПоиск
Качество видео: DVDRip
Контейнер: AVI
Видео кодек: XviD
Аудио кодек: AC3
Видео: 720x544 (1.32:1), 25 fps, XviD build 50 ~2192 kbps avg, 0.22 bit/pixel
Аудио: 48 kHz, AC3 Dolby Digital, 2/0 (L,R) ch, ~192 kbps
Cубтитры: отсутствуют
На роль Артура Маршама пробовался Александр Абдулов.
Скриб — один из моих любимых драматургов, а «Стакан воды» одна из лучших его пьес. Но имелся спектакль Малого театра, в котором Болингброка играл Зубов. Это было так ярко, что Лаврову не удалось подняться на тот же уровень, и образ померк. Поэтому я и поставила 9 баллов. Но Демидова в этом фильме точно на своем месте: даже внешне она похожа на придворные английские портреты. Порадовала Белохвостикова в роли королевы. Манерная, самовлюбленная, недалекая женщина, оказавшаяся на троне и волею судьбы наделенная властью. Мне кажется, что лучше сыграть этот персонаж невозможно. Скриб блестящ, остроумен, лёгок. Когда хочется поднять себе настроение, пересматриваешь такие фильмы. Полки книжных магазинов ломятся под тяжестью томов, издается много философской и психологической литературы, поэзия, бульварные романы, но… крайне сложно найти книги по драматургии. Я еле купила книгу с пьесами Скриба, оставив заявку в букинистическом магазине. А ведь был он невероятно плодовит, но в России большинство его произведений никогда не переводилось. Поэтому и знакомимся мы с этим автором благодаря кино. И очень хочется порекомендовать всем, кто любит юмор и интригу, посмотреть этот фильм и эту пьесу.
9 из 10
Придворные интриги, или урок культуры речи
В очередной раз пересматривая этот неувядающий телефильм, не перестаю восхищаться искрометной и талантливой игрой наших замечательных актеров — Лаврова, Демидовой, Белохвостиковой, Смирновой! Голливуд отдыхает. Все шероховатости и театральность постановки отходят на второй план — не костюмы и декорации, а диалоги и актерская игра создают здесь интригу фильма и атмосферу старой Англии. Какая мимика, какие эмоции, какие движения! Как оказывается легко и красиво можно уничтожить своего оппонента одним лишь взглядом, метким словом и поворотом головы! И никаких ругательств, рукопашных, перестрелок и другого экшна, с помощью которых привыкли изъясняться герои в современных фильмах (да и в жизни тоже). «Стакан воды» — просто пособие по культуре речи.
Королева Анна в исполнении Н. Белохвостиковой неподражаема. Истинная королева. Играет потрясающе — одними глазами выражает гамму чувств, которые столь знатной особе не пристало выставлять напоказ. И это вовсе не означает, что она неживая. Она влюблена, она страдает, она переживает… но внутри себя. И лишь иногда делится с Абигайль.
Выше всяких похвал К. Лавров (лорд Болингброк) и А. Демидова (герцогиня Мальборо)! Один из самых запоминающихся дуэтов в нашем кинематографе. Первая статс-дама королевы — полный антипод слабохарактерной и легкомысленной Анны (и это исторический факт). Красивая, умная, хитрая и коварная фаворитка практически правила Англией — это достоверно удалось передать Алле Демидовой на экране (настоящая английская леди).
Спасибо всем актерам и создателям телефильма за огромное удовольствие, которое возникает у меня при просмотре этого шедевра и ничуть не уменьшается с годами!
Общее
Полное имя : F:\Стакан воды\Stakan vody.1979.DVDRip.[pirat.ca].avi\1.Stakan vody.1979.DVDRip.[pirat.ca].avi
Формат : AVI
Формат/Информация : Audio Video Interleave
Размер файла : 1,08 Гбайт
Продолжительность : 1 ч. 4 м.
Общий поток : 2395 Кбит/сек
Программа кодирования : VirtualDubModRus 1.5.10.2 (build 2542/release)
Библиотека кодирования : VirtualDubMod build 2542/release
Видео
Идентификатор : 0
Формат : MPEG-4 Visual
Профиль формата : Advanced [email protected]
Параметр BVOP формата : 4
Параметр QPel формата : Да
Параметр GMC формата : Без точки перехода
Параметр матрицы формата : Default (H.263)
Идентификатор кодека : XVID
Идентификатор кодека/Подсказка : XviD
Продолжительность : 1 ч. 4 м.
Битрейт : 2193 Кбит/сек
Ширина : 720 пикселей
Высота : 544 пикселя
Соотношение сторон : 4:3
Частота кадров : 25,000 кадров/сек
Цветовое пространство : YUV
Субдискретизация насыщенности : 4:2:0
Битовая глубина : 8 бит
Тип развёртки : Прогрессивная
Метод сжатия : С потерями
Бит/(Пиксели*Кадры) : 0.224
Размер потока : 1013 Мбайт (92%)
Библиотека кодирования : XviD 1.2.1 (UTC 2008-12-04)
Аудио
Идентификатор : 1
Формат : AC-3
Формат/Информация : Audio Coding 3
Расширение режима : CM (complete main)
Параметр Endianness формата : Big
Идентификатор кодека : 2000
Продолжительность : 1 ч. 4 м.
Вид битрейта : Постоянный
Битрейт : 192 Кбит/сек
Каналы : 2 канала
Расположение каналов : Front: L R
Частота : 48,0 КГц
Частота кадров : 31,250 кадров/сек (1536 spf)
Метод сжатия : С потерями
Размер потока : 88,7 Мбайт (8%)
Выравнивание : Разделение по промежуткам
Продолжительность промежутка : 40 мс. (1,00 видеокадр)
Время предзагрузки промежутка : 500 мс.
Download / Скачать

Хотите скачать бесплатно? Зарегистрируйтесь на сайте (ссылка на регистрацию). Pirat.ca - самый быстрый торрент трекер в рунете!

Как скачивать  ·   Что такое торрент  ·   Рейтинг и ограничения

Показать сообщения:    
Ответить на тему

Текущее время: Сегодня 20:02

Часовой пояс: GMT + 4



Вы не можете начинать темы
Вы не можете отвечать на сообщения
Вы не можете редактировать свои сообщения
Вы не можете удалять свои сообщения
Вы не можете голосовать в опросах
Вы не можете прикреплять файлы к сообщениям
Вы не можете скачивать файлы

▼ Вниз