ML
     
  Уважаемый Гость!
Вы можете поддержать проект и зарегистрироваться у наших партнеров - онлайн-стратегия MyLands. При регистрации в игре Вы получите код, который сможете активировать после регистрации на pirat.ca и получить 1000 дублонов.

Ваш код:
1a5b0a965618b2c406d4279ec9924ee6282c60cf
 
     

О друзьях-товарищах (Владимир Назаров) [1970 г., приключения, история, DVDRip]

Ответить на тему
 
Автор
Сообщение

Пост 23-Окт-2016 16:34

[Q] 

somik

Легенда

-О друзьях-товарищах-- Производство: СССР, Мосфильм
Режиссер: Владимир Назаров
Жанр: приключения, история
Год выпуска: 1970 г.
Продолжительность: 02:15:22
Российская премьера: 16 июня 1970
Дата выхода DVD: 18 июня 2009, «Мастер Тэйп»
В ролях: Зинаида Славина, Валерий Золотухин, Иван Лапиков, Михаил Кокшенов, Алексей Инжеватов, Петр Глебов, Геннадий Юхтин, Нина Агапова, Майя Булгакова, Николай Дупак, Леонид Куравлев, Дмитрий Масанов, Владимир Назаров, Николай Сергеев и другие...-Описание: В Москве 1919 года все еще существуют анархистские организации, действия которых имеют явный антисоветский характер. Чекистам предстоит разоблачить их деятельность. Дело поручается трем вновь призванным в ряды ВЧК комсомольцам-товарищам.-Сэмпл КиноПоиск
Качество видео: DVDRip
Контейнер: AVI
Видео кодек: XviD
Аудио кодек: AC3
Видео: 720x480 (1.50:1), 25 fps, XviD build 50 ~2279 kbps avg, 0.26 bit/pixel
Аудио: 48 kHz, AC3 Dolby Digital, 2/0 (L,R) ch, ~192 kbps
Cубтитры: отсутствуют
«О друзьях — товарищах» — советский двухсерийный цветной художественный фильм, снятый режиссёром Владимиром Назаровым на киностудии «Мосфильм» в 1970 году. Премьера фильма состоялась 16 июня 1970 года (по телевидению). Фильм снимался к 50-летию комсомола.
Действие фильма разворачивается в период гражданской войны в России (Москва, 1919 год) в период разгула анархистских и антисоветских экстремистских организаций. Трем друзьям — молодым чекистам предстоит обезвредить их… В основу фильма положен исторический эпизод: взрыв в Леонтьевском переулке
В ролях:
Зинаида Славина — Ольга Даниловна Листопад, комиссар московского ЧК
Валерий Золотухин — Владимир Михайлович Горский, ответственный секретарь Московского городского комитета РКП(б)
Иван Лапиков — Федор Сергеевич Иволгин (дядя Федя), старый чекист
Михаил Кокшенов — Алексей Карпович Утробин, чекист комсомольского набора
Алексей Инжеватов — Костя Жохов, чекист комсомольского набора
Олег Ефремов — Станислав Ковальский, чекист комсомольского набора
Пётр Глебов — Виталий Александрович Глазьев, начальник отделения железной дороги, руководитель заговорщиков,
Геннадий Юхтин — Виктор Пшенников, «Пшено», анархист, руководитель боевого крыла заговорщиков
Нина Агапова — Родичева, заговорщица
Майя Булгакова — Марья Алексеевна, тетя Маша из дома профессора-историка Великжанова
Николай Дупак — Тарасов Олег Владимирович, заговорщик
Леонид Куравлёв — Иван Кузьмич Синицын, связной заговорщиков из Вятки
Улдис Лиелдиджс — Амплий Карлович Петерс, зампред ВЧК
Игорь Старыгин — студент юридического факультета
Николай Сергеев — Илья Ильич Великжанов, старый профессор-историк
Дмитрий Масанов — Иван Родичев, заговорщик
Владимир Назаров — Модест Ступицын, левый эсер, заговорщик
Владимир Смирнов — заговорщик
Галина Федотова — Наташа, внучка профессора Великжанова
Борис Юрченко — Саня Плавун, стажёр-чекист
Екатерина Мазурова — бабушка Кости Жохова
Андрей Манке — секретарь райкома комсомола
Пётр Любешкин — Лузгин, чекист
Жорж Новицкий — заговорщик
Пицек, Владимир Кондратьевич — заговорщик
Михаил Розанов — Зайцев, призывник, кандидат на работу в ЧК
Иван Рыжов — торговец зерном на рынке
Иван Савкин — пулемётчик, из заговорщиков
Владимир Ферапонтов — Ферапонт, заговорщик
Игорь Ясулович — юродивый
Алексей Бахарь — Клычков, заговорщик
Анатолий Быстров — Ефременко, представитель Махно
Леонид Кулагин — Стефан Вишняк, эсер, товарищ Ольги Листопад по каторге (нет в титрах)
Виктор Шульгин — рабочий-литейщик лефортовского «Мехзавода Мюллер и К» (нет в титрах)
Раднэр Муратов — помощник Глазьева (нет в титрах)
Юсуп Даниялов — Магометов — (нет в титрах)
Николай Погодин — заговорщик (нет в титрах)
Евгений Герасимов — чекист (нет в титрах)
Анатолий Калабулин — призывник / заговорщик (нет в титрах)
Екатерина Жемчужная — цыганка на барахолке (нет в титрах)
Лариса Барабанова — участница поэтической агитбригады (нет в титрах)
Евгений Зосимов — патрульный (нет в титрах)
Ия Маркс — эпизод (нет в титрах)
Александр Титов — эпизод (нет в титрах)
А.Петров — эпизод (нет в титрах)
Владимир Липпарт — эпизод (нет в титрах)
Сергей Штерн — солдат (нет в титрах)
Съёмочная группа:
Режиссёр: Владимир Назаров
Сценаристы: Владимир Кузнецов, Борис Медовой
Оператор: Тимофей Лебешев
Композитор: Карен Хачатурян
Художники: Ирина Лукашевич, Иван Пластинкин
Технические данные:
Фильм цветной, состоит из двух серий.
Продолжительность фильма — 144 мин.
Фильм был снят на киностудии «Мосфильм».
Год выпуска фильма — 1970
Литература:
А. Соловьёв. «Взрыв в Леонтьевском». Из книги «Волки гибнут в капканах». Москва. «Воениздат». 1976.
Общее
Полное имя : C:\герои 7\О друзья-товарищах.1970.DVDRip.[pirat.ca]\O DRUZJAH TOVARISCHAH.1970.DVDRip.[pirat.ca].avi
Формат : AVI
Формат/Информация : Audio Video Interleave
Профиль формата : OpenDML
Размер файла : 2,34 Гбайт
Продолжительность : 2 ч. 15 м.
Общий поток : 2479 Кбит/сек
Программа кодирования : VirtualDubMod 1.5.10.3 | www.virtualdub-fr.org || (build 2550/release)
Библиотека кодирования : VirtualDubMod build 2550/release
Видео
Идентификатор : 0
Формат : MPEG-4 Visual
Профиль формата : Advanced [email protected]
Параметр BVOP формата : 4
Параметр QPel формата : Нет
Параметр GMC формата : Без точки перехода
Параметр матрицы формата : Default (H.263)
Идентификатор кодека : XVID
Идентификатор кодека/Подсказка : XviD
Продолжительность : 2 ч. 15 м.
Битрейт : 2275 Кбит/сек
Ширина : 720 пикселей
Высота : 480 пикселей
Соотношение сторон : 3:2
Частота кадров : 25,000 кадров/сек
Цветовое пространство : YUV
Субдискретизация насыщенности : 4:2:0
Битовая глубина : 8 бит
Тип развёртки : Прогрессивная
Метод сжатия : С потерями
Бит/(Пиксели*Кадры) : 0.263
Размер потока : 2,15 Гбайт (92%)
Библиотека кодирования : XviD 1.2.1 (UTC 2008-12-04)
Аудио
Идентификатор : 1
Формат : AC-3
Формат/Информация : Audio Coding 3
Расширение режима : CM (complete main)
Параметр Endianness формата : Big
Идентификатор кодека : 2000
Продолжительность : 2 ч. 15 м.
Вид битрейта : Постоянный
Битрейт : 192 Кбит/сек
Каналы : 2 канала
Расположение каналов : Front: L R
Частота : 48,0 КГц
Частота кадров : 31,250 кадров/сек (1536 spf)
Метод сжатия : С потерями
Размер потока : 186 Мбайт (8%)
Выравнивание : Разделение по промежуткам
Продолжительность промежутка : 40 мс. (1,00 видеокадр)
Время предзагрузки промежутка : 500 мс.
Download / Скачать

Хотите скачать бесплатно? Зарегистрируйтесь на сайте (ссылка на регистрацию). Pirat.ca - самый быстрый торрент трекер в рунете!

Как скачивать  ·   Что такое торрент  ·   Рейтинг и ограничения

Показать сообщения:    
Ответить на тему

Текущее время: Сегодня 23:47

Часовой пояс: GMT + 4



Вы не можете начинать темы
Вы не можете отвечать на сообщения
Вы не можете редактировать свои сообщения
Вы не можете удалять свои сообщения
Вы не можете голосовать в опросах
Вы не можете прикреплять файлы к сообщениям
Вы не можете скачивать файлы

▼ Вниз