ML
     
  Уважаемый Гость!
Вы можете поддержать проект и зарегистрироваться у наших партнеров - онлайн-стратегия MyLands. При регистрации в игре Вы получите код, который сможете активировать после регистрации на pirat.ca и получить 1000 дублонов.

Ваш код:
2a3da67fd641d69eeebb7cb965232435a70eaa24
 
     

Добровольцы (Юрий Егоров) [1958 г., Героико-патриотический фильм-плакат, романтическая кинопоэма, DVDRip]

Ответить на тему
 
Автор
Сообщение

Пост 23-Окт-2016 18:00

[Q] 

somik

Легенда

-Добровольцы-- Производство: СССР, Студия Горького
Режиссер: Юрий Егоров
Жанр: Героико-патриотический фильм-плакат, романтическая кинопоэма
Год выпуска: 1958 г.
Продолжительность: 01:31:05
Российская премьера: 20 октября 1958
Дата выхода DVD: 20 апреля 2009, «Азимут»
В ролях: Михаил Ульянов, Пётр Щербаков, Леонид Быков, Элина Быстрицкая, Людмила Крылова, Микаэла Дроздовская, Сергей Плотников, Виктор Чекмарёв, Никифор Колофидин, Александр Сашин-Никольский, и др-Описание: Действие происходит в 30 — 50 годы. Неразлучные друзья Кайтанов, Уфимцев и Акишин добровольно стали первыми метростроевцами. О них и их подругах Леле, Маше и Тане и других друзьях и товарищах рассказывает этот фильм. Свою дружбу и единство они пронесли через всю жизнь. Трудовой фронт, испанские добровольные бригады, Вторая мировая война и снова послевоенный труд уже в мирное время, радости и печали, победы и утраты, любовь и счастье…-Сэмпл КиноПоиск
Качество видео: DVDRip
Контейнер: AVI
Видео кодек: XviD
Аудио кодек: AC3
Видео: 688x528 (1.30:1), 25 fps, XviD build 67 ~2129 kbps avg, 0.23 bit/pixel
Аудио #1: 48 kHz, AC3 Dolby Digital, 3/2 (L,C,R,l,r) + LFE ch, ~384 kbps
Аудио #2: 48 kHz, MPEG Layer 3, 2 ch, ~192.00 kbps avg
Cубтитры: отсутствуют
«Добровольцы» — советский художественный фильм по одноимённому роману в стихах поэта Евгения Долматовского.
Романтическое и героическое повествование о комсомольцах 1930-х годов, от начала индустриализации страны до послевоенной «оттепели» 1950-х годов. Рассказ о судьбе поколения, вынесшего на своих плечах строительство первой очереди Московского метрополитена, Великую Отечественную войну, послевоенное восстановление страны.
В ролях:
Михаил Ульянов — Николай Кайтанов
Пётр Щербаков — Слава Уфимцев
Леонид Быков — Алёша Акишин
Элина Быстрицкая — Лёля Теплова, жена Кайтанова
Людмила Крылова — Маша Суворова, лётчица-парашютистка
Микаэла Дроздовская — Таня, жена Уфимцева
Сергей Плотников — дядя Серёжа
Виктор Чекмарёв — Оглотков
Никифор Колофидин — генерал
Александр Сашин-Никольский — доктор
Мария Виноградова — сержант Валя Кухнаренко
Павел Винник — комсорг шахты
Иван Мочалов — Макс, немецкий коммунист
Юрий Киреев — лётчик с письмом от Уфимцева из Испании
Нонна Мордюкова — метростроевка (нет в титрах)
Людмила Иванова — комсомолка в красной кофте и чёрном берете
Леонид Пирогов — конструктор (нет в титрах)
Людмила Марченко — девушка младшего Кайтанова (нет в титрах)
Валентин Брылеев — метростроевец на собрании (нет в титрах)
Светлана Харитонова — военная регулировщица (нет в титрах)
Иван Косых — эпизод (нет в титрах)
Алевтина Румянцева — рабочая (нет в титрах)
Съёмочная группа:
Авторы сценария: Евгений Долматовский, Юрий Егоров
Режиссёр: Юрий Егоров
Оператор: Игорь Шатров
Художник: Пётр Пашкевич
Композитор: Марк Фрадкин
Звукорежиссёр: Александр Избуцкий
Монтажёр: Ксения Блинова
Директор фильма: Владимир Марон
1959 — Третья премия на Всесоюзном кинофестивале в Киеве.
Наверное, самая короткая рецензия из всех. Обсуждать этот фильм, это всё равно, что обсуждать жизнь наших отцов и дедов, силами которых и построена эта жизнь.
Потрясающая игра актёров и мощный энергетический посыл зрителю никого не оставит равнодушным к этой монументальной картине.
Актёры, многих уже нет в живых, всегда останутся с нами через своих героев, на которых когда-то равнялись поколения!
Почему-то сейчас стало модным по первым каналам нашего телевидения стало показывать старые советские киноленты. С чем это связано? С тем, что у народа упадок сил, потерян смысл жизни? Или может нет современного российского кино, которое взывало бы к лучшим чувствам?
А может и того и другого!
Давайте смотреть и снимать хорошее кино, друзья!
10 из 10
Общее
Полное имя : J:\Добровольцы.1958.DVDRip.[pirat.ca]\DOBROVOLJCY.1958.DVDRip.[pirat.ca].avi
Формат : AVI
Формат/Информация : Audio Video Interleave
Размер файла : 1,73 Гбайт
Продолжительность : 1 ч. 31 м.
Общий поток : 2721 Кбит/сек
Программа кодирования : VirtualDubMod 1.5.10.3 (build 2550/release)
Библиотека кодирования : VirtualDubMod build 2550/release
Видео
Идентификатор : 0
Формат : MPEG-4 Visual
Профиль формата : Advanced [email protected]
Параметр BVOP формата : 1
Параметр QPel формата : Нет
Параметр GMC формата : Без точки перехода
Параметр матрицы формата : Default (H.263)
Идентификатор кодека : DX50
Идентификатор кодека/Подсказка : DivX 5
Продолжительность : 1 ч. 31 м.
Битрейт : 2131 Кбит/сек
Ширина : 688 пикселей
Высота : 528 пикселей
Соотношение сторон : 4:3
Частота кадров : 25,000 кадров/сек
Цветовое пространство : YUV
Субдискретизация насыщенности : 4:2:0
Битовая глубина : 8 бит
Тип развёртки : Прогрессивная
Метод сжатия : С потерями
Бит/(Пиксели*Кадры) : 0.235
Размер потока : 1,36 Гбайт (78%)
Библиотека кодирования : XviD 67
Аудио #1
Идентификатор : 1
Формат : AC-3
Формат/Информация : Audio Coding 3
Расширение режима : CM (complete main)
Параметр Endianness формата : Big
Идентификатор кодека : 2000
Продолжительность : 1 ч. 31 м.
Вид битрейта : Постоянный
Битрейт : 384 Кбит/сек
Каналы : 6 каналов
Расположение каналов : Front: L C R, Side: L R, LFE
Частота : 48,0 КГц
Частота кадров : 31,250 кадров/сек (1536 spf)
Метод сжатия : С потерями
Размер потока : 250 Мбайт (14%)
Выравнивание : Разделение по промежуткам
Продолжительность промежутка : 40 мс. (1,00 видеокадр)
Время предзагрузки промежутка : 500 мс.
Аудио #2
Идентификатор : 2
Формат : MPEG Audio
Версия формата : Version 1
Профиль формата : Layer 3
Режим : Joint stereo
Идентификатор кодека : 55
Идентификатор кодека/Подсказка : MP3
Продолжительность : 1 ч. 31 м.
Вид битрейта : Постоянный
Битрейт : 192 Кбит/сек
Каналы : 2 канала
Частота : 48,0 КГц
Метод сжатия : С потерями
Размер потока : 125 Мбайт (7%)
Выравнивание : Соединение по промежуткам
Продолжительность промежутка : 40 мс. (1,00 видеокадр)
Время предзагрузки промежутка : 504 мс.
Библиотека кодирования : LAME3.99r
Настройки программы : -m j -V 4 -q 3 -lowpass 18.6 -b 192
Download / Скачать

Хотите скачать бесплатно? Зарегистрируйтесь на сайте (ссылка на регистрацию). Pirat.ca - самый быстрый торрент трекер в рунете!

Как скачивать  ·   Что такое торрент  ·   Рейтинг и ограничения

Показать сообщения:    
Ответить на тему

Текущее время: Сегодня 01:14

Часовой пояс: GMT + 4



Вы не можете начинать темы
Вы не можете отвечать на сообщения
Вы не можете редактировать свои сообщения
Вы не можете удалять свои сообщения
Вы не можете голосовать в опросах
Вы не можете прикреплять файлы к сообщениям
Вы не можете скачивать файлы

▼ Вниз