ML
     
  Уважаемый Гость!
Вы можете поддержать проект и зарегистрироваться у наших партнеров - онлайн-стратегия MyLands. При регистрации в игре Вы получите код, который сможете активировать после регистрации на pirat.ca и получить 1000 дублонов.

Ваш код:
69f316be79867e9bf99caee9682d20bb11964507
 
     

Осторожно, бабушка! (Надежда Кошеверова) [1960 г., мюзикл, комедия, DVDRip-AVC]

Ответить на тему
 
Автор
Сообщение

Пост 28-Окт-2016 16:35

[Q] 

somik

Легенда

-Осторожно, бабушка!-- Производство: СССР, Ленфильм
Режиссер: Надежда Кошеверова
Жанр: мюзикл, комедия
Год выпуска: 1960 г.
Продолжительность: 01:22:32
Российская премьера: 7 марта 1961
В ролях: Фаина Раневская, Ариадна Шенгелая, Людмила Маркелия, Светлана Харитонова, Нина Ургант, Юлиан Панич, Леонид Быков, Сергей Филиппов, Ролан Быков, Елизавета Уварова...-Описание: Герои фильма — молодая девушка-комсомолка и ее бабушка, не уступающая внучке в активности, энтузиазме и целеустремленности. Вместе им удается организовать комсомольцев (и не только!) на строительство нового Дома культуры.-Сэмпл КиноПоиск
Качество видео: DVDRip-AVC
Контейнер: MKV
Видео кодек: MPEG4 AVC
Аудио кодек: AC3
Видео: [email protected] (4:3), 25 fps, H264 ~ 2139 kbps avg, 0.217 bit/pixel
Аудио: 48 kHz, Dolby AC3 5.0, 384 kbps
Cубтитры: отсутствуют
Занимает по посещаемости 91-е место среди отечественных фильмов за всю историю советского кинопроката
Завораживает…
Ох, ну и завораживает меня как этот фильм! Такой потрясающий лично для меня. Но неудивительно, так как, потому что именно здесь снимается Фаина Раневская.
Комедия сама по себе получилась необычная и чуть-чуть завораживающая. Так как именно бабушка помогает внучке. Справится со всеми ситуациями, сложностями, какими-то проблемами. Конечно, в жизни это тоже можно встретить.
Мне больше роль понравилась у Фаины Раневской. Как всегда она неотразима, весела. Я могу сказать она одна из многих актрис, которая непременно может сыграть так необычно и с юмором. В этой комедии я просто поражена ее работой! Роль таковой эгоистичной бабушки ей вправду удалась. Несмотря на то, что в нем играет столько не так важных актеров.
Сама комедия придает массу ощущений. А после просмотра и вовсе думаешь, как же бабушка могла все внучкины проблемы решить? Да.… Но не так важно, что в кино надо иметь тот самый сюжет, который прям таки, нужен фильму. Здесь не таких моментов!
А значит фильм сам по себе простой, ну за счет актеров он удался на славу.
10 из 10
Общее
Уникальный идентификатор : 213500473172743875745312971719341925457 (0xA09EB20883BF87F78A88368352026451)
Полное имя : E:\Осторожно, бабушка!\Ostorozhno,babushka!1960.DVDRip-AVC.[pirat.ca].mkv
Формат : Matroska
Версия формата : Version 2
Размер файла : 1,46 Гбайт
Продолжительность : 1 ч. 22 м.
Общий поток : 2525 Кбит/сек
Дата кодирования : UTC 2013-03-16 23:24:16
Программа кодирования : mkvmerge v5.0.1 ('Es ist Sommer') built on Nov 6 2011 16:23:40
Библиотека кодирования : libebml v1.2.2 + libmatroska v1.3.0
Видео
Идентификатор : 1
Формат : AVC
Формат/Информация : Advanced Video Codec
Профиль формата : [email protected]
Параметр CABAC формата : Да
Параметр ReFrames формата : 11 кадров
Идентификатор кодека : V_MPEG4/ISO/AVC
Продолжительность : 1 ч. 22 м.
Битрейт : 2139 Кбит/сек
Ширина : 688 пикселей
Высота : 572 пикселя
Соотношение сторон : 4:3
Соотношение сторон в оригинале : 4:3
Режим частоты кадров : Постоянный
Частота кадров : 25,000 кадров/сек
Цветовое пространство : YUV
Субдискретизация насыщенности : 4:2:0
Битовая глубина : 8 бит
Тип развёртки : Прогрессивная
Бит/(Пиксели*Кадры) : 0.217
Размер потока : 1,21 Гбайт (83%)
Библиотека кодирования : x264 core 119 r2106 07efeb4
Настройки программы : cabac=1 / ref=11 / deblock=1:-2:-1 / analyse=0x3:0x113 / me=umh / subme=9 / psy=1 / psy_rd=1.00:0.20 / mixed_ref=1 / me_range=32 / chroma_me=1 / trellis=2 / 8x8dct=1 / cqm=0 / deadzone=21,11 / fast_pskip=0 / chroma_qp_offset=-3 / threads=3 / sliced_threads=0 / nr=0 / decimate=0 / interlaced=0 / bluray_compat=0 / constrained_intra=0 / bframes=8 / b_pyramid=2 / b_adapt=2 / b_bias=0 / direct=3 / weightb=1 / open_gop=0 / weightp=2 / keyint=250 / keyint_min=25 / scenecut=40 / intra_refresh=0 / rc_lookahead=60 / rc=2pass / mbtree=1 / bitrate=2139 / ratetol=1.0 / qcomp=0.60 / qpmin=0 / qpmax=69 / qpstep=4 / cplxblur=20.0 / qblur=0.5 / ip_ratio=1.40 / aq=1:1.00
Default : Да
Forced : Нет
Аудио
Идентификатор : 2
Формат : AC-3
Формат/Информация : Audio Coding 3
Расширение режима : CM (complete main)
Параметр Endianness формата : Big
Идентификатор кодека : A_AC3
Продолжительность : 1 ч. 22 м.
Вид битрейта : Постоянный
Битрейт : 384 Кбит/сек
Каналы : 5 каналов
Расположение каналов : Front: L C R, Side: L R
Частота : 48,0 КГц
Частота кадров : 31,250 кадров/сек (1536 spf)
Метод сжатия : С потерями
Размер потока : 227 Мбайт (15%)
Default : Да
Forced : Нет
Download / Скачать

Хотите скачать бесплатно? Зарегистрируйтесь на сайте (ссылка на регистрацию). Pirat.ca - самый быстрый торрент трекер в рунете!

Как скачивать  ·   Что такое торрент  ·   Рейтинг и ограничения

Показать сообщения:    
Ответить на тему

Текущее время: Сегодня 14:32

Часовой пояс: GMT + 4



Вы не можете начинать темы
Вы не можете отвечать на сообщения
Вы не можете редактировать свои сообщения
Вы не можете удалять свои сообщения
Вы не можете голосовать в опросах
Вы не можете прикреплять файлы к сообщениям
Вы не можете скачивать файлы

▼ Вниз