ML
     
  Уважаемый Гость!
Вы можете поддержать проект и зарегистрироваться у наших партнеров - онлайн-стратегия MyLands. При регистрации в игре Вы получите код, который сможете активировать после регистрации на pirat.ca и получить 1000 дублонов.

Ваш код:
bc31d8aef74c92e19ad67e34a8fa63c3b9b812fb
 
     

Посредник (Владимир Потапов) [1990 г., фантастика, SATRip]

Ответить на тему
 
Автор
Сообщение

Пост 30-Окт-2016 04:06

[Q] 

somik

Легенда

-Посредник-- Производство: СССР, Студия Горького
Режиссер: Владимир Потапов
Жанр: фантастика
Год выпуска: 1990 г.
Продолжительность: 03:37:57
Российская премьера: 22 декабря 1990
В ролях: Олеся Судзиловская, Андрей Тарасенко, Денис Членов, Инара Слуцка, Валерий Сторожик, Олегар Федоро, Альгис Матулёнис, Евгений Редько, Олег Филипенко, Виллор Кузнецов, Даша Сидорина, Станислав Житарев, Валерия Устинова, Иван Пилипенко, Дмитрий Матвеев, Алексей Казанцев, Юрий Брешин, Ян Янакиев, Артём Карапетян, Борис Триус, Виталий Зикора, Артур Нищенкин, Александр Горбачев, Николай Сысоев, Галина Самохина, Зинаида Кулакова, Шавкат Газиев, Максим Дмитроченков, Василий Масленников-Описание: Нависший над землей загадочный шар становится источником несчастий. После встречи с посредником этого шара люди становятся подвластны злой силе. Однако влияние посредника не распространяется на сумасшедших и детей. Сережа и Настя решают предотвратить катастрофу — и с помощью инженера Замятина спасают Землю от вторжения злого Разума…-Сэмпл КиноПоиск
Качество видео: SATRip
Контейнер: AVI
Видео кодек: XviD
Аудио кодек: MP3
Видео: 688x512 (1.34:1), 20 fps, XviD build 73 ~1233 kbps avg, 0.17 bit/pixel
Аудио: 48 kHz, MPEG Layer 3, 2 ch, ~192.00 kbps avg
Cубтитры: отсутствуют
Снято по мотивам повести Александра Мирера «Главный полдень».
Фильм был показан по ТВ во время фактического распада СССР. Это придало ему дополнительный смысл, который, скорее всего, и не был заложен в нем создателями фильма.
Кадры из фильма были использованы в заставке телепрограммы «Телескоп» («мы должны захватить, телеграф, телефон, телескоп…»)
Телескоп из фильма — антенна ТНА-1500 (РТ-64) в Центре космической связи ОКБ МЭИ «Медвежьи озера».
Сцены в помещениях снимались на Пущинской радиоастрономической обсерватории АКЦ ФИАН.
По одной из начальных задумок планировалось телескоп взорвать, был построен макет.
В массовке покидания инопланетянами тел землян в конце фильма участвовали, в том числе, работники ОКБ.
Фильм для детей 80-х
Помню, смотрел этот фильм в начале 90-х. Самому было тогда 15 лет, и фильм поразил своей необычностью и сюжета, и атмосферы, и игрой актеров…
К тому времени во всю развилось кабельное телевидение со Звездными войнами, Брюсами Ли и Джеки Чанами. А Посредник был абсолютно не похож на все эти боевики. Кажущаяся поначалу занудность сцен, к середине фильма начинает затягивать. Сюжетная линия выстроена так, что быстро начинаешь себя представлять на месте главного героя и думать — а смог бы ты противостоять такому нашествию?!
Может быть такие фильмы и были нужны тогда детям 80-х. Фактически Посредник — это предвестник той бури, которая пронеслась над страной в начале 90-х.
Очень жаль, что современный российский кинематограф не способен воспроизводить подобные вещи и еще больше жаль, что этот фильм не показывают по ТВ.
10 из 10
Я бы не назвал это фантастикой…
С первого взгляда складывается впечатление, что это и впрямь такая дешёвая фантастика… глупые пришельцы, брошенные в грязную жижу совкового пригорода…
храбрые подростки на мотоциклах разруливают ситуацию и подвергают злостных завоевателей в бегство… есть всё, совместимое с ужасом — дождливая заправка, ребёнок, брошенный жестоким монстром, вселившимся в его мать, непробиваемый лидер злодеев, воплощенный в водителе хлебного фургона, проницательный и честный старик-заступник, местный, бесполезный для пришельцев дурачок, едкий джаз и самопожертвование…
Казалось бы всё просто до тошноты, но фильм забирает своей атмосферой. Спервого кадра от него веет тайной романтикой… Всё происходящее кажется слишком близким, как будто наблюдаемое в соседнем дворе, но вместе с тем, абсолютно невозможное, нереальное…
Фильм поразил меня сразу же, с первого просмотра и не отпускает до сих пор…
10 из 10
Должен сказать, что это не какая-нибудь там третьесортная мистика.
И нет там никакой «злой силы». В этом «шаре» находятся разумы инопланетной цивилизации, методично захватывающей планету за планетой. С помощью так называемого «посредника» они высаживаются на планете, выбранной для вторжения, а точнее разум инопланетянина захватывает тело разумного обитателя планеты. Мозг сумасшедшего и ребенка почему-то не поддается инопланетному вмешательству.
В фильме нет спецэффектов. Снято очень просто и дешево. Саспенс строится по принципу «Ведьмы из Блэр»: мы не видим врага, но он рядом, среди нас (точнее в нас). Считаю, что это один из лучших фильмов перестроечного периода. С удовольствием посмотрел бы его еще раз, но, к сожалению, не могу найти.
Кстати в описании к фильму не указано, что он многосерийный (не меньше трех серий).
10 из 10
Общее
Полное имя : E:\Посредник 1990\Posrednik.1990.O.SATRip.[pirat.ca].avi
Формат : AVI
Формат/Информация : Audio Video Interleave
Профиль формата : OpenDML
Размер файла : 2,18 Гбайт
Продолжительность : 3 ч. 37 м.
Общий поток : 1432 Кбит/сек
Название фильма : Posrednik.1990.O.SATRip.2100.CurHaJI
Библиотека кодирования : VirtualDub build 35491/release
Видео
Идентификатор : 0
Формат : MPEG-4 Visual
Профиль формата : Advanced [email protected]
Параметр BVOP формата : 1
Параметр QPel формата : Нет
Параметр GMC формата : Без точки перехода
Параметр матрицы формата : Выборочная
Идентификатор кодека : XVID
Идентификатор кодека/Подсказка : XviD
Продолжительность : 3 ч. 37 м.
Битрейт : 1230 Кбит/сек
Ширина : 688 пикселей
Высота : 512 пикселей
Соотношение сторон : 4:3
Частота кадров : 20,000 кадров/сек
Цветовое пространство : YUV
Субдискретизация насыщенности : 4:2:0
Битовая глубина : 8 бит
Тип развёртки : Прогрессивная
Метод сжатия : С потерями
Бит/(Пиксели*Кадры) : 0.175
Размер потока : 1,87 Гбайт (86%)
Библиотека кодирования : XviD 73
Аудио
Идентификатор : 1
Формат : MPEG Audio
Версия формата : Version 1
Профиль формата : Layer 3
Идентификатор кодека : 55
Идентификатор кодека/Подсказка : MP3
Продолжительность : 3 ч. 37 м.
Вид битрейта : Постоянный
Битрейт : 192 Кбит/сек
Каналы : 2 канала
Частота : 48,0 КГц
Метод сжатия : С потерями
Размер потока : 299 Мбайт (13%)
Выравнивание : Разделение по промежуткам
Продолжительность промежутка : 50 мс. (1,00 видеокадр)
Время предзагрузки промежутка : 500 мс.
Библиотека кодирования : LAME3.99r
Настройки программы : -m s -V 4 -q 2 -lowpass 18.6 -b 192
Download / Скачать

Хотите скачать бесплатно? Зарегистрируйтесь на сайте (ссылка на регистрацию). Pirat.ca - самый быстрый торрент трекер в рунете!

Как скачивать  ·   Что такое торрент  ·   Рейтинг и ограничения

Показать сообщения:    
Ответить на тему

Текущее время: Сегодня 11:58

Часовой пояс: GMT + 4



Вы не можете начинать темы
Вы не можете отвечать на сообщения
Вы не можете редактировать свои сообщения
Вы не можете удалять свои сообщения
Вы не можете голосовать в опросах
Вы не можете прикреплять файлы к сообщениям
Вы не можете скачивать файлы

▼ Вниз