ML
     
  Уважаемый Гость!
Вы можете поддержать проект и зарегистрироваться у наших партнеров - онлайн-стратегия MyLands. При регистрации в игре Вы получите код, который сможете активировать после регистрации на pirat.ca и получить 1000 дублонов.

Ваш код:
aec9a4a936117fb450ba69e519991a0465404b1d
 
     

Тема (Глеб Панфилов) [1979 г., драма, мелодрама, комеди, DVDRip]

Ответить на тему
 
Автор
Сообщение

Пост 02-Ноя-2016 12:23

[Q] 

somik

Легенда

-Тема-- Производство: СССР, Мосфильм
Режиссер: Глеб Панфилов
Жанр: драма, мелодрама, комеди
Год выпуска: 1979 г.
Продолжительность: 01:33:23
Российская премьера: 17 апреля 1987
В ролях: Михаил Ульянов, Инна Чурикова, Станислав Любшин, Евгений Весник, Евгения Нечаева, Наталья Селезнева, Сергей Никоненко, Вадим Федулов-Описание: Популярный драматург Ким Есенин (Михаил Ульянов) приезжает с любовницей (Наталья Селезнёва) и другом (Евгений Весник) на собственной «Волге» в Суздаль, в поисках исторической темы для новой пьесы, внутренне мучаясь от собственной ангажированности и переживая духовный кризис. В Суздале он попадает в семью старой учительницы Марии Александровны (Евгения Нечаева) с прежними, традиционными понятиями о нравственности и чести. Ким пытается добиться расположения искусствоведа и экскурсовода местного музея Саши (Инна Чурикова), ученицы Марии Александровны, но та прямо говорит ему о бесталанности и безнравственности его пьес. Позже Ким Есенин оказывается тайным свидетелем прощального разговора Саши с её возлюбленным — «Бородатым» (Станислав Любшин). «Бородатый», разочарованный учёный и писатель, собирается эмигрировать в США (в сцене расставания с Бородатым героиня Чуриковой кричит: «Что тебе делать в этой Америке?!»). Есенин пытается ночью уехать в Москву, но на полпути передумывает...-Сэмпл КиноПоиск
Качество видео: DVDRip
Контейнер: AVI
Видео кодек: XviD
Аудио кодек: AC3
Видео: 720x528 (1.36:1), 25 fps, XviD build 50 ~2030 kbps avg, 0.21 bit/pixel
Аудио: 48 kHz, AC3 Dolby Digital, 2/0 (L,R) ch, ~192 kbps
Cубтитры: отсутствуют
Невзирая на обещания председателя Госкино Филиппа Ермаша в ближайшее время «протолкнуть фильм на экран», зрители ничего не знали о нем вплоть до 17 июня 1986 года — дня, когда состоялась долгожданная премьера в московском Доме кино. Сразу же посыпались многочисленные, диаметрально противоположные мнения — критики практически единодушно давали «Теме» положительные оценки, простым зрителям же он показался чересчур мудрёным и сложным. Юрий Нагибин, к примеру, как и Евгений Евтушенко, заявил, что не знает таких писателей, как Ким Есенин. Как позже рассказывал Панфилов, в разговоре с ним Евтушенко предсказал прокатную судьбу картины еще до ее выхода на экраны.
В августе 1979 года, незадолго до 11-го Московского кинофестиваля, в кинокругах заговорили о том, что режиссёр Глеб Панфилов завершил работу над новой неоднозначной картиной. Панфилов действительно, наконец, закончил сьёмки «Темы» и для закрытых просмотров созвал строго ближайших друзей. Вслед за этим последовали критикующие фильм письма, пришедшие в ЦК КПСС, и его показы высшим членам Политбюро. Результат — «Тему» «положили на полку».
Выбирая актёра на главную роль, драматурга Кима Есенина, Панфилов колебался и многим отказывал. В частности, одним из ключевых претендентов на это место был Иннокентий Смоктуновский, но режиссёр посчитал это «слишком поверхностным решением». Также рассматривалась кандидатура Алексея Баталова. Но в итоге был утверждён народный артист Михаил Ульянов, невероятно удивлённый тем, что Панфилов выбрал именно его.
В 1978 году руководство Госкино приступило к поискам режиссёра, который возьмётся за художественный фильм, разоблачающий диссидентов и эмигрантов. От кресла режиссёра отказались Никита Михалков и Николай Губенко. Осознав безвыходность положения, чиновники уговорили небезызвестного постановщика Глеба Панфилова, согласившегося только при условии, что сценарий вместе с ним напишет его друг Александр Червинский.
Летом 1981 года состоялся закрытый показ ленты на 12-м ММКФ, но там она не вызвала никакого восторга у присутствующих гостей и, в частности, иностранцев. Произошло это из-за её многократных переделок и переработок, финал был подчистую изменён: в первоначальном варианте Есенин все-таки умирал после злополучной аварии, но в тогдашней стране больше всего боялись именно смерти. Чтобы спасти свой фильм, Панфилов снял несколько положительных концовок.
* Из-за цензурных преград авторский вариант фильма был выпущен только в 1986 году. Этим и объясняется тот факт, что главного приза Берлинского кинофестиваля «Золотого медведя» он был удостоен только в 1987 году.
Берлинский кинофестиваль, 1987 год
Победитель (5):
Золотой Медведь
Приз ФИПРЕССИ (конкурсная программа)
Премия имени Отто Дибелиуса международного евангелического жюри (конкурсная программа)
Премия Европейской конфедерации художественного кино
Награда C.I.D.A.L.C.
1986 — премия Гильдии сценаристов Союза кинематографистов СССР (Глеб Панфилов, Александр Червинский).
Общее
Полное имя : E:\Тема (1979)\Tema.1979.DVDRip.[pirat.ca].avi
Формат : AVI
Формат/Информация : Audio Video Interleave
Размер файла : 1,46 Гбайт
Продолжительность : 1 ч. 33 м.
Общий поток : 2232 Кбит/сек
Программа кодирования : VirtualDubMod 1.5.10.3 | www.virtualdub-fr.org || (build 2550/release)
Библиотека кодирования : VirtualDubMod build 2550/release
Видео
Идентификатор : 0
Формат : MPEG-4 Visual
Профиль формата : Advanced [email protected]
Параметр BVOP формата : 1
Параметр QPel формата : Нет
Параметр GMC формата : Без точки перехода
Параметр матрицы формата : Default (MPEG)
Идентификатор кодека : DX50
Идентификатор кодека/Подсказка : DivX 5
Продолжительность : 1 ч. 33 м.
Битрейт : 2030 Кбит/сек
Ширина : 720 пикселей
Высота : 528 пикселей
Соотношение сторон : 4:3
Частота кадров : 25,000 кадров/сек
Цветовое пространство : YUV
Субдискретизация насыщенности : 4:2:0
Битовая глубина : 8 бит
Тип развёртки : Прогрессивная
Метод сжатия : С потерями
Бит/(Пиксели*Кадры) : 0.214
Размер потока : 1,32 Гбайт (91%)
Библиотека кодирования : XviD 1.2.1 (UTC 2008-12-04)
Аудио
Идентификатор : 1
Формат : AC-3
Формат/Информация : Audio Coding 3
Расширение режима : CM (complete main)
Параметр Endianness формата : Big
Идентификатор кодека : 2000
Продолжительность : 1 ч. 33 м.
Вид битрейта : Постоянный
Битрейт : 192 Кбит/сек
Каналы : 2 канала
Расположение каналов : Front: L R
Частота : 48,0 КГц
Частота кадров : 31,250 кадров/сек (1536 spf)
Метод сжатия : С потерями
Размер потока : 128 Мбайт (9%)
Выравнивание : Разделение по промежуткам
Продолжительность промежутка : 40 мс. (1,00 видеокадр)
Время предзагрузки промежутка : 500 мс.
Download / Скачать

Хотите скачать бесплатно? Зарегистрируйтесь на сайте (ссылка на регистрацию). Pirat.ca - самый быстрый торрент трекер в рунете!

Как скачивать  ·   Что такое торрент  ·   Рейтинг и ограничения

Показать сообщения:    
Ответить на тему

Текущее время: Сегодня 02:23

Часовой пояс: GMT + 4



Вы не можете начинать темы
Вы не можете отвечать на сообщения
Вы не можете редактировать свои сообщения
Вы не можете удалять свои сообщения
Вы не можете голосовать в опросах
Вы не можете прикреплять файлы к сообщениям
Вы не можете скачивать файлы

▼ Вниз