ML
     
  Уважаемый Гость!
Вы можете поддержать проект и зарегистрироваться у наших партнеров - онлайн-стратегия MyLands. При регистрации в игре Вы получите код, который сможете активировать после регистрации на pirat.ca и получить 1000 дублонов.

Ваш код:
4399ab8611ee7f8a22949d2ee7634160dd2db7e0
 
     

Шумный день (Анатолий Эфрос, Георгий Натансон) [1960 г., мелодрама, комедия, DVDRip-AVC]

Ответить на тему
 
Автор
Сообщение

Пост 18-Ноя-2016 04:14

[Q] 

somik

Легенда

-Шумный день-- Производство: СССР, Мосфильм
Режиссер: Анатолий Эфрос, Георгий Натансон
Жанр: мелодрама, комедия
Год выпуска: 1960 г.
Продолжительность: 01:33:26
Российская премьера: 7 января 1961
В ролях: Валентина Сперантова, Геннадий Печников, Татьяна Надеждина, Владимир Земляникин, Олег Табаков, Лидия Толмачева, Евгений Перов, Лев Круглый, Виктория Духина, Р.Чумак, Инна Гулая, Е.Савченко, Александра Данилова...-Описание: На обычной московской улице в ничем не примечательном доме дружно живет семья: мать и четверо детей. Но в один «прекрасный» день в этой семье происходит жестокий конфликт из-за мебели, которой забита квартира.
Впрочем, мебель — только повод. На самом деле сталкиваются два мировоззрения, разные представления о жизненных ценностях…-Сэмпл КиноПоиск
Качество видео: DVDRip-AVC
Контейнер: MKV
Видео кодек: MPEG4 AVC
Аудио кодек: AC3
Видео: [email protected] (2.35:1), 25 fps, H264 ~ 2037 kbps avg, 0.263 bit/pixel
Аудио: 48 kHz, AC3, 2 ch, 192.00 kbps
Cубтитры: отсутствуют
IMDb: 7.20/10
Фильм снят по пьесе Виктора Розова «В поисках радости».
В поисках радости
Замечательный фильм по пьесе Виктора Розова «В поисках радости». В нём собралось всё самое светлое, с чем у меня ассоциируется советское время. Он наполнен душевной чистотой и душевной силой. Я не знаю, есть ли всему этому место в современном мире, но мне хотелось бы, чтоб этот фильм сумел попасть в ракурс внимания современной молодёжи, лучше даже подростков, это будет надёжнее: истины, освещённые в этом фильме однозначно понятны даже в отроческом возрасте.
Я не помню, когда посмотрела «Шумный день» впервые, но каждый раз, когда смотрю фильм вновь, нахожу в нём всё новые потрясающие детали: выражения лиц, эмоции, жесты, даже позы персонажей. Складывается впечатление, что режиссёр продумал в фильме абсолютно каждую деталь, каждый кадр. Не смотря на, в общем-то, несложный бытовой, семейный сюжет, фильм производит сильное впечатление. Я бы даже сказала, он очищает, придаёт сил.
В фильме сложно выделить главных и второстепенных героев — каждый из них делает по ходу развития сюжета свой личный сложный выбор. Однако создаётся неосознанное впечатление, что основным персонажем является всё-таки самый молодой, в исполнении О. Табакова. У него впереди самый длинный путь. Именно поэтому в финале фильма звучит в его исполнении стихотворение, на мой взгляд, определяющее основную идею, мораль фильма и одновременно содержащее обращение к зрителю:
«Как будто в начале дороги
Стою, отправляясь в путь.
Крепче несите, ноги,
Не дайте с дороги свернуть!
Я знаю: тропинки бывают,
Ведущие в тихий уют,
Где гадины гнезда свивают,
Где жалкие твари живут.
Но нет мне туда дороги,
Пути в эти заросли — нет.
Крепче несите, ноги,
В мир недобытых побед!»
Общее
Уникальный идентификатор : 177295213589668604525805241876385467186 (0x8561D0EAF06DF3F1A892172F0DCD8B32)
Полное имя : J:\Шумный день (1960)\Shumnyj denj.1960.DVDRip-AVC.[pirat.ca].mkv
Формат : Matroska
Версия формата : Version 2
Размер файла : 1,46 Гбайт
Продолжительность : 1 ч. 33 м.
Общий поток : 2231 Кбит/сек
Дата кодирования : UTC 2012-12-25 10:52:18
Программа кодирования : mkvmerge v5.0.1 ('Es ist Sommer') built on Nov 6 2011 16:23:40
Библиотека кодирования : libebml v1.2.2 + libmatroska v1.3.0
Видео
Идентификатор : 1
Формат : AVC
Формат/Информация : Advanced Video Codec
Профиль формата : [email protected]
Параметр CABAC формата : Да
Параметр ReFrames формата : 11 кадров
Идентификатор кодека : V_MPEG4/ISO/AVC
Продолжительность : 1 ч. 33 м.
Битрейт : 2037 Кбит/сек
Ширина : 720 пикселей
Высота : 430 пикселей
Соотношение сторон : 2,35:1
Режим частоты кадров : Постоянный
Частота кадров : 25,000 кадров/сек
Цветовое пространство : YUV
Субдискретизация насыщенности : 4:2:0
Битовая глубина : 8 бит
Тип развёртки : Прогрессивная
Бит/(Пиксели*Кадры) : 0.263
Размер потока : 1,30 Гбайт (89%)
Библиотека кодирования : x264 core 119 r2106 07efeb4
Настройки программы : cabac=1 / ref=11 / deblock=1:-2:-1 / analyse=0x3:0x113 / me=umh / subme=9 / psy=1 / psy_rd=1.00:0.20 / mixed_ref=1 / me_range=32 / chroma_me=1 / trellis=2 / 8x8dct=1 / cqm=0 / deadzone=21,11 / fast_pskip=0 / chroma_qp_offset=-3 / threads=3 / sliced_threads=0 / nr=0 / decimate=0 / interlaced=0 / bluray_compat=0 / constrained_intra=0 / bframes=8 / b_pyramid=2 / b_adapt=2 / b_bias=0 / direct=3 / weightb=1 / open_gop=0 / weightp=2 / keyint=250 / keyint_min=25 / scenecut=40 / intra_refresh=0 / rc_lookahead=60 / rc=2pass / mbtree=1 / bitrate=2037 / ratetol=1.0 / qcomp=0.60 / qpmin=0 / qpmax=69 / qpstep=4 / cplxblur=20.0 / qblur=0.5 / ip_ratio=1.40 / aq=1:1.00
Default : Да
Forced : Нет
Аудио
Идентификатор : 2
Формат : AC-3
Формат/Информация : Audio Coding 3
Расширение режима : CM (complete main)
Параметр Endianness формата : Big
Идентификатор кодека : A_AC3
Продолжительность : 1 ч. 33 м.
Вид битрейта : Постоянный
Битрейт : 192 Кбит/сек
Каналы : 2 канала
Расположение каналов : Front: L R
Частота : 48,0 КГц
Частота кадров : 31,250 кадров/сек (1536 spf)
Метод сжатия : С потерями
Размер потока : 128 Мбайт (9%)
Default : Да
Forced : Нет
Download / Скачать

Хотите скачать бесплатно? Зарегистрируйтесь на сайте (ссылка на регистрацию). Pirat.ca - самый быстрый торрент трекер в рунете!

Как скачивать  ·   Что такое торрент  ·   Рейтинг и ограничения

kugesan

56600

Пост 18-Ноя-2016 07:29 (спустя 3 часа)

[Q] 

Недокроп

_________________

В мире две бесконечности: вселенная и человеческая глупость - Альберт Эйнштен
«Можно вытащить человека из грязи, но нельзя вытащить грязь из человека»!
[Профиль]  [ЛС] 
Показать сообщения:    
Ответить на тему

Текущее время: Сегодня 10:45

Часовой пояс: GMT + 4



Вы не можете начинать темы
Вы не можете отвечать на сообщения
Вы не можете редактировать свои сообщения
Вы не можете удалять свои сообщения
Вы не можете голосовать в опросах
Вы не можете прикреплять файлы к сообщениям
Вы не можете скачивать файлы

▼ Вниз