ML
     
  Уважаемый Гость!
Вы можете поддержать проект и зарегистрироваться у наших партнеров - онлайн-стратегия MyLands. При регистрации в игре Вы получите код, который сможете активировать после регистрации на pirat.ca и получить 1000 дублонов.

Ваш код:
dbd0d701284cde74a1f34d06ce20b7bc75a73e75
 
     

Свой среди чужих, чужой среди своих (Никита Михалков) [1974 г., боевик, DVDRip-AVC] Оригинал + Sub (Rus)

Ответить на тему
 
Автор
Сообщение

Пост 19-Ноя-2016 07:22

[Q] 

somik

Легенда

-Свой среди чужих, чужой среди своих-- Производство: СССР, Мосфильм
Режиссер: Никита Михалков
Жанр: боевик
Год выпуска: 1974 г.
Продолжительность: 01:32:02
Российская премьера: СССР 11 ноября 1974
Дата выхода DVD: 11 января 2011, «Парадиз»
В ролях: Юрий Богатырёв, Анатолий Солоницын, Сергей Шакуров, Александр Пороховщиков, Николай Пастухов, Александр Кайдановский, Никита Михалков, Николай Засухин, Александр Калягин, Константин Райкин, Екатерина Шадрина, Михаил Кислов, Виталий Комиссаров, Александр Яковлев, Анатолий Борисов, Геннадий Крашенинников, Михаил Чигарев, Галина Микеладзе, Александр Адабашьян, Вадим Вильский, Борис Галкин-Описание: Действие этого психологического «вестерна» происходит в 20-е годы в маленьком губернском городке на юге России. Гражданская война кончилась, но до полной победы большевиков еще далеко. Группа бандитов из бывших белых офицеров грабит поезд с золотом, на которое нужно было купить хлеб для голодающих, и пятеро друзей, бывших красных бойцов, вступают с ними в смертельную схватку.
Получается так, что подозрение в предательстве падает на одного из них (первая роль Богатырева в полнометражном кино), и, сбежав от товарищей, он один должен вернуть золото, чтобы доказать свою невиновность.-Сэмпл КиноПоиск
Качество видео: DVDRip-AVC
Контейнер: MKV
Видео кодек: MPEG4 AVC
Аудио кодек: AC3
Видео: 3500 Кбит/с, [email protected], 25,000 кадров/сек
Аудио: AC3, 6 ch, 448 Кбит/с, 48,0 КГц
Cубтитры: русские
Формат субтитров: softsub (SSA/ASS)
Доп. информация о субтитрах: включаемые
IMDb: 7.80/10
Съемки фильма проходили на територрии Чечено-Ингушской АССР, отец режиссёра — Сергей Михалков — был в те годы депутатом от этой республики.
В цветном фильме есть черно-белые эпизоды, что обусловлено не только художественной необходимостью, но и тем, что Мосфильм выделил на съемки фильма только 5400 метров пленки «Кодак».
Фильм снят по повести Э. Я. Володарского и Н. С. Михалкова «Красное золото».
Согласно выписке и платежной ведомости фильма «Свой среди чужих, чужой среди своих», гонорары участвовавших в нем актеров таковы: Н. Михалков — 2809 руб. за режиссуру и 725 руб. за роль; Ю. Богатырев — 1102 руб. 50 коп.; А. Кайдановский — 850 руб.; А. Солоницын — 2060 руб.; С. Шакуров — 1139 руб.; А. Пороховщиков — 826 руб.; К. Райкин — 504 руб.; Н. Засухин — 560 руб.; А. Калягин — 235 руб.
Когда эпизод с ограблением поезда был уже отснят, выяснилось, что практически вся отснятая плёнка с данной сценой оказалась бракованной. В начале ноября 1973 года в Чечне внезапно испортилась погода и выпал обильный снег. Снимать в таких условиях стало невозможно, и эпизод пришлось переснимать уже в Азербайджане в окрестностях Баку.
Эпизод, в котором Каюм пытается помочь забраться Шилову на скалу, но в итоге сам оказывается в воде, снимался на реке Аргун. Константину Райкину надо было упасть с 12-метровой скалы в бурный водоворот. Перед съёмкой сцены долго не могли измерить глубину реки — шест сносило сильным течением. Тогда вместо шеста опустили стальной рельс. Показалось достаточно глубоко, но как выяснилось, рельс тоже снесло, и на самом деле глубина в том месте была около 2 метров. Температура воды в реке Аргун — 3 градуса. К счастью, съёмка эпизода обошлась без травм, сняли с первого дубля.
Один из моих самых любимых фильмов
Я не стану пересказывать сюжет, оценивать работу режиссера, не стану описывать, то как блестяще играли актеры и какой они составили прекрасный ансамбль. К чему? Сюжет хоть и не отличается оригинальностью, но прост и изящен, мастерство и стиль Михалкова широко известны, а класс актеров, сыгравших в фильме, легко понять, просто перечислив фамилии.
Мне хочется описать свои чувства к этому фильму.
Как бы мне ни было плохо, нахожусь ли я в состоянии апатии, депрессии или банального равнодушия, какие бы крамольные мысли меня не одолевали, одно воспоминание об этом фильме пробуждает все самое светлое и чистое, что есть во мне. И мне снова хочется мечтать, творить, я снова вспоминаю, что на земле есть настоящая любовь, преданная дружба, что все-таки хороших людей на свете гораздо больше, чем плохих, просто им надо почаще об этом напоминать.
10 из 10
Общее
Уникальный идентификатор : 232516457115590857312801921274245630336 (0xAEED0A6D6C7E3C598F6CAA5A3EBD4980)
Полное имя : J:\Свой среди чужих, чужой среди своих (1974)\Свой среди чужих.1974.DVDRip-AVC.[pirat.ca].mkv
Формат : Matroska
Версия формата : Version 2
Размер файла : 2,54 Гбайт
Продолжительность : 1 ч. 31 м.
Общий поток : 3950 Кбит/сек
Дата кодирования : UTC 2016-11-19 02:54:00
Программа кодирования : mkvmerge v5.3.0 ('I could have danced') built on Feb 9 2012 10:38:07
Библиотека кодирования : libebml v1.2.3 + libmatroska v1.3.0
Видео
Идентификатор : 1
Формат : AVC
Формат/Информация : Advanced Video Codec
Профиль формата : [email protected]
Параметр CABAC формата : Да
Параметр ReFrames формата : 15 кадров
Идентификатор кодека : V_MPEG4/ISO/AVC
Продолжительность : 1 ч. 31 м.
Битрейт : 3500 Кбит/сек
Ширина : 716 пикселей
Высота : 574 пикселя
Соотношение сторон : 4:3
Режим частоты кадров : Постоянный
Частота кадров : 25,000 кадров/сек
Цветовое пространство : YUV
Субдискретизация насыщенности : 4:2:0
Битовая глубина : 8 бит
Тип развёртки : Прогрессивная
Бит/(Пиксели*Кадры) : 0.341
Размер потока : 2,20 Гбайт (87%)
Библиотека кодирования : x264 core 130 r2273 b3065e6
Настройки программы : cabac=1 / ref=15 / deblock=1:-2:-2 / analyse=0x3:0x133 / me=umh / subme=10 / psy=1 / psy_rd=1.05:0.12 / mixed_ref=1 / me_range=32 / chroma_me=1 / trellis=2 / 8x8dct=1 / cqm=0 / deadzone=21,11 / fast_pskip=0 / chroma_qp_offset=-3 / threads=12 / lookahead_threads=2 / sliced_threads=0 / nr=0 / decimate=0 / interlaced=0 / bluray_compat=0 / constrained_intra=0 / bframes=9 / b_pyramid=2 / b_adapt=2 / b_bias=0 / direct=3 / weightb=1 / open_gop=0 / weightp=2 / keyint=250 / keyint_min=25 / scenecut=40 / intra_refresh=0 / rc=2pass / mbtree=0 / bitrate=3500 / ratetol=1.0 / qcomp=0.60 / qpmin=0 / qpmax=39 / qpstep=4 / cplxblur=20.0 / qblur=0.5 / ip_ratio=1.40 / pb_ratio=1.30 / aq=1:1.00
Язык : English
Default : Да
Forced : Нет
Цветовой диапазон : Limited
Основные цвета : BT.601 PAL
Характеристики трансфера : BT.470 System B, BT.470 System G
Коэффициенты матрицы : BT.601
Аудио
Идентификатор : 2
Формат : AC-3
Формат/Информация : Audio Coding 3
Расширение режима : CM (complete main)
Параметр Endianness формата : Big
Идентификатор кодека : A_AC3
Продолжительность : 1 ч. 31 м.
Вид битрейта : Постоянный
Битрейт : 448 Кбит/сек
Каналы : 6 каналов
Расположение каналов : Front: L C R, Side: L R, LFE
Частота : 48,0 КГц
Частота кадров : 31,250 кадров/сек (1536 spf)
Метод сжатия : С потерями
Задержка видео : 59 мс.
Размер потока : 295 Мбайт (11%)
Язык : Russian
Default : Да
Forced : Нет
Текст
Идентификатор : 3
Формат : UTF-8
Идентификатор кодека : S_TEXT/UTF8
Идентификатор кодека/Информация : UTF-8 Plain Text
Язык : Russian
Default : Нет
Forced : Нет
Download / Скачать

Хотите скачать бесплатно? Зарегистрируйтесь на сайте (ссылка на регистрацию). Pirat.ca - самый быстрый торрент трекер в рунете!

Как скачивать  ·   Что такое торрент  ·   Рейтинг и ограничения

Показать сообщения:    
Ответить на тему

Текущее время: Сегодня 18:32

Часовой пояс: GMT + 4



Вы не можете начинать темы
Вы не можете отвечать на сообщения
Вы не можете редактировать свои сообщения
Вы не можете удалять свои сообщения
Вы не можете голосовать в опросах
Вы не можете прикреплять файлы к сообщениям
Вы не можете скачивать файлы

▼ Вниз