ML
     
  Уважаемый Гость!
Вы можете поддержать проект и зарегистрироваться у наших партнеров - онлайн-стратегия MyLands. При регистрации в игре Вы получите код, который сможете активировать после регистрации на pirat.ca и получить 1000 дублонов.

Ваш код:
2cea854bae06d26241aab7fdd5e780021cf3d3fc
 
     

Эффект Ромашкина (Роман Балаян) [1973 г., комедия, DVDRip-AVC]

Ответить на тему
 
Автор
Сообщение

Пост 07-Дек-2016 15:26

[Q] 

somik

-Эффект Ромашкина -- Производство: СССР
Режиссер: Роман Балаян
Жанр: комедия
Год выпуска: 1973 г.
Продолжительность: 01:03:02
Дата выхода DVD: 30 сентября 2008, «Мьюзик-Трейд»
В ролях: Роман Ткачук, Михаил Державин, Николай Гринько, Ирина Шевчук, Людмила Ефименко, Сергей Свечников, Сергей Иванов, Вера Орлова, Николай Парфёнов, Николай Яковченко-Описание: О четырех друзьях-киноманах, решивших снять рекламный фильм о пользе кефира.-Сэмпл КиноПоиск
Качество видео: DVDRip-AVC
Контейнер: MKV
Видео кодек: MPEG4 AVC
Аудио кодек: AC3
Видео: 3000 Кбит/с, [email protected], 25,000 кадров/сек
Аудио: AC3, 6 ch, 448 Кбит/с, 48,0 КГц
Cубтитры: отсутствуют
Ода кисло-молочному продукту
Советский сарказм — беспощаден.
Данный фильм полон скрытых и открытых намеков. Тут тебе и мюзикл, и торжество кинематографа, и пародия на короткометражку Ламориса о воздушном шаре, и окна сатиры РОСТА, и пародия на Ленина, и кабачок 13 стульев с панимоникой, и бесполовая любовь, и хитроумный детектив! Коллаж брежневской эпохи.
Галлюцинирующий пенсионер — это оттуда. А еще — «я никогда не думал, что на свете бывает одновременно в одном месте — так много! аккордеонов!! как это прекрасно дарить их людям!!!» — но подтекст, наверняка, иной. И может даже, речь идет о любви.
В советское время так не хватало измененных состояний сознания, не беря во внимание партийную доктрину, которая вгоняла в транс миллионы людей многонациональной страны. Психодел сочится из всех щелей. Действительно начинаешь верить в чудодейственный эффект после употребления кефира.
Ах, да. Забыл сказать, что фильм о кефире, летающим по осеннему Киеву. Некто Ромашкин В. В. пьет кефир и видит видения, полные ярких образов. Пытливые ученые попытались залезть в его мозг и управлять образами, чтоб потом вторично поработить рабочий класс. Кефир на мухоморах — это возможно!
Концовка, хоть и смазана лозунгом о добре, я ставлю
8,5 из 10
Общее
Уникальный идентификатор : 190345374686980964143157873425754743172 (0x8F332F8948847B7A8010BFF5ACF1E184)
Полное имя : F:\Эффект Ромашкина (1973)\Эффект Ромашкина.1973.DVDRip-AVC.[pirat.ca].mkv
Формат : Matroska
Версия формата : Version 2
Размер файла : 1,52 Гбайт
Продолжительность : 1 ч. 3 м.
Общий поток : 3450 Кбит/сек
Дата кодирования : UTC 2016-12-03 21:56:13
Программа кодирования : mkvmerge v7.8.0 ('River Man') 32bit built on Apr 3 2015 12:11:22
Библиотека кодирования : libebml v1.3.1 + libmatroska v1.4.2
Видео
Идентификатор : 1
Формат : AVC
Формат/Информация : Advanced Video Codec
Профиль формата : [email protected]
Параметр CABAC формата : Да
Параметр ReFrames формата : 14 кадров
Идентификатор кодека : V_MPEG4/ISO/AVC
Продолжительность : 1 ч. 3 м.
Битрейт : 3000 Кбит/сек
Ширина : 706 пикселей
Высота : 572 пикселя
Соотношение сторон : 4:3
Соотношение сторон в оригинале : 4:3
Режим частоты кадров : Постоянный
Частота кадров : 25,000 кадров/сек
Цветовое пространство : YUV
Субдискретизация насыщенности : 4:2:0
Битовая глубина : 8 бит
Тип развёртки : Прогрессивная
Бит/(Пиксели*Кадры) : 0.297
Размер потока : 1,29 Гбайт (85%)
Библиотека кодирования : x264 core 148 r2638 7599210
Настройки программы : cabac=1 / ref=14 / deblock=1:-2:-2 / analyse=0x3:0x133 / me=umh / subme=10 / psy=1 / psy_rd=1.05:0.15 / mixed_ref=1 / me_range=32 / chroma_me=1 / trellis=2 / 8x8dct=1 / cqm=0 / deadzone=21,11 / fast_pskip=0 / chroma_qp_offset=-3 / threads=4 / lookahead_threads=1 / sliced_threads=0 / nr=0 / decimate=0 / interlaced=0 / bluray_compat=0 / constrained_intra=0 / bframes=16 / b_pyramid=2 / b_adapt=2 / b_bias=0 / direct=3 / weightb=1 / open_gop=0 / weightp=2 / keyint=250 / keyint_min=25 / scenecut=40 / intra_refresh=0 / rc=2pass / mbtree=0 / bitrate=3000 / ratetol=1.0 / qcomp=0.60 / qpmin=0 / qpmax=69 / qpstep=4 / cplxblur=20.0 / qblur=0.5 / ip_ratio=1.40 / pb_ratio=1.30 / aq=1:1.00
Default : Да
Forced : Нет
Цветовой диапазон : Limited
Основные цвета : BT.601 NTSC
Характеристики трансфера : BT.601
Коэффициенты матрицы : BT.601
Аудио
Идентификатор : 2
Формат : AC-3
Формат/Информация : Audio Coding 3
Расширение режима : CM (complete main)
Параметр Endianness формата : Big
Идентификатор кодека : A_AC3
Продолжительность : 1 ч. 3 м.
Вид битрейта : Постоянный
Битрейт : 448 Кбит/сек
Каналы : 6 каналов
Расположение каналов : Front: L C R, Side: L R, LFE
Частота : 48,0 КГц
Частота кадров : 31,250 кадров/сек (1536 spf)
Метод сжатия : С потерями
Размер потока : 202 Мбайт (13%)
Default : Да
Forced : Нет
Download / Скачать

Хотите скачать бесплатно? Зарегистрируйтесь на сайте (ссылка на регистрацию). Pirat.ca - самый быстрый торрент трекер в рунете!

Как скачивать  ·   Что такое торрент  ·   Рейтинг и ограничения

xzxscorpxzx

Легенда

Пост 12-Дек-2016 02:10 (спустя 4 дня)

[Q] 

тоже на любителя фильм
[Профиль]  [ЛС] 

vetpol

Морской Волк

Пост 20-Дек-2016 14:41 (спустя 8 дней)

[Q] 

Не видел, погляжу. Спасибо!
[Профиль]  [ЛС] 
Показать сообщения:    
Ответить на тему

Текущее время: Сегодня 02:25

Часовой пояс: GMT + 4



Вы не можете начинать темы
Вы не можете отвечать на сообщения
Вы не можете редактировать свои сообщения
Вы не можете удалять свои сообщения
Вы не можете голосовать в опросах
Вы не можете прикреплять файлы к сообщениям
Вы не можете скачивать файлы

▼ Вниз