Уважаемый Гость!
Вы можете поддержать проект и зарегистрироваться у наших партнеров - онлайн-стратегия MyLands. При регистрации в игре Вы получите код, который сможете активировать после регистрации на pirat.ca и получить 1000 дублонов.

Ваш код:
cf60c35aba5d71789ac9920244f42e838e81817a
 
     

Дом, который построил Свифт (Марк Захаров) [1982 г., фэнтези, триллер, драма, комедия, детектив, DVDRip-AVC]

Ответить на тему
 
Автор
Сообщение

Пост 07-Дек-2016 18:13

[Q] 

somik

-Дом, который построил Свифт-- Производство: СССР
Режиссер: Марк Захаров
Жанр: фэнтези, триллер, драма, комедия, детектив
Год выпуска: 1982 г.
Продолжительность: 02:16:39
Российская премьера: 3 ноября 1985
В ролях: Олег Янковский, Александр Абдулов, Владимир Белоусов, Евгений Леонов, Марина Игнатова, Александра Захарова, Александр Сирин, Александр Збруев, Николай Караченцов, Татьяна Рудина, Виктор Проскурин, Юрий Астафьев, Вилор Кузнецов, Всеволод Ларионов, Игорь Фокин, Семён Фарада, Юрий Колычев, Валерий Беляков, Альберт Буров (Беренштейн), Николай Гагарин, Вячеслав Горбунчиков, Евгений Марков, Владимир Мышкин, Александр Трофимов, Вадим Урюпин, Олег Фёдоров, Геннадий Матвеев, Татьяна Щанкина, Александр Сажин, Георгий Всеволодов, Владимир Фёдоров-Описание: Удивительный дом построил английский писатель Джонатан Свифт. В нем реальность слилась с вымыслом, ожили персонажи из книг.
Рассказывая невероятные и правдивые истории, придумывая мистификации и розыгрыши, хозяин дома пытается раскрыть людям тайный смысл бытия и, может быть, преобразить их жизнь…-Сэмпл КиноПоиск
Качество видео: DVDRip-AVC
Контейнер: MKV
Видео кодек: MPEG4 AVC
Аудио кодек: AC3
Видео: 2269 Кбит/с, [email protected], 25,000 кадров/сек
Аудио: AC3, 1 ch, 224 Кбит/с, 48,0 КГц
Cубтитры: отсутствуют
IMDb: 7.80/10
Факты о фильме:
Фраза «Когда случилось это? — Сегодня, как обычно, в пять часов» губительно сказалась на судьбе фильма. Выпуск фильма на экран совпал с чередой кремлёвских похорон — Брежнев, Андропов, Черненко. Поэтому телепремьера фильма, снятого в 1982 году, состоялась только 3 ноября 1985 года. Его повторный показ был анонсирован на август 1991 года, однако в связи с выступлением ГКЧП вся телепрограмма была отменена (по ТВ транслировался только балет «Лебединое озеро» и выпуски новостей с зачитыванием Постановлений ГКЧП), таким образом показ фильма по ЦТ тогда так и не состоялся.
Герой Е. Леонова, по ошибке приняв доктора (А. Абдулов) за Ланцелота, предлагает ему поединок. Через 6 лет выйдет другой фильм М. Захарова, где герой Леонова (Бургомистр) — один из противников Ланцелота, причём последнего играет А. Абдулов — «Убить дракона».
В ролях:
Олег Янковский — Джонатан Свифт
Александр Абдулов — Ричард Симпсон, доктор
Владимир Белоусов — Патрик, слуга-секретарь
Евгений Леонов — Глюм, великан
Марина Игнатова — Ванесса
Александра Захарова — Стелла (Эстер Джонсон)
Александр Сирин — Некто
Александр Збруев — Рельб, лилипут
Николай Караченцов — Флим, лилипут
Татьяна Рудина — Бетти, жена Рельба
Виктор Проскурин — Джек Смит, констебль
Юрий Астафьев — констебль
Виллор Кузнецов — главный лапутянин
Всеволод Ларионов — Бигс, судья
Семён Фарада — губернатор
Юрий Колычев — епископ
Валерий Беляков — горожанин
Вячеслав Горбунчиков — горожанин
Евгений Марков — участник совещания у губернатора
Владимир Мышкин — горожанин
Игорь Фокин — зритель с биноклем
Олег Фёдоров — лапутянин
Владимир Фёдоров — карлик с пистолетом (нет в титрах)
Съёмочная группа:
Режиссёр — Марк Захаров
Сценарист — Григорий Горин
Оператор — Лев Бунин
Композитор — Геннадий Гладков
Текст песен — Юлий Ким
В этом доме умирают все, и не умирает никто…
Я так люблю фильмы Захарова и считаю этого режиссера гением. Когда я увидела «Дом, который построил Свифт», уже были несколько раз пересмотрены более известные его ленты, но это произведение произвело на меня наивысшее впечатление. Во-первых, неординарное начало, все эти слова за кадром, как при настоящей съемке, но это не так важно как смысл и герои, прекрасно исполненные величайшими актерами.
Доктор-из Ноттингем-Шира, конечно же, это его наиглавнейшая черта, которая звучит на протяжении всего фильма. Нужно обратить внимание на перемену в его характере после пребывания в загадочном Доме. Из врача-реалиста, он вдруг превращается в сумасшедшего, такого же фантазера как Свифт и это замечательно, прекрасно, когда человек способен на такое.
Что же сказать о декане? Джонатан Свифт так блестяще сыгран Янковским, что слова «игра актера» звучат оскорбительно, скорее он сжит, прочувствован. Я уверена, что лишь этому актеру дано было передать всю сложность героя, ведь только Янковский способен промолчав практически весь фильм обращать пристальное внимание зрителя именно на себя, показывать чувства глазами.
А какой там великан! Да, да именно велика! По-другому и не скажешь, его история очень печальна, но в тоже время необходима, что бы понять, как люди бывают жестоки. Именно ради них герой Леонова «опустился».
Свифт-Ванеса-Стелла вечный любовный треугольник. «В его жизни было две женщины, но его нравственные принципы не позволили нанести раны не одно из них.»Ни декан, ни сами девушки не знают, кого он любит и это так и остается нераскрытым.
Можно подумать, что горькие чудеса закончились, но увы…Конец первой части фильма окроплен кровью, которая льется ради жизни, точнее, для того что б она перестала быть заурядной. А разве кому то хочется, что бы она была такой?!
Фильм пропитан иронией, свойственно как Захарову, так и Горину. В конце осуществляется сцена похорон, но не репетиция, а своеобразная премьера.
»…Я исчезну.
-Совсем?
-Совсем.
-И не выйдете на аплодисменты?
-В этот раз нет…»
10 из 10
Общее
Уникальный идентификатор : 178765117460282648928301676154860846183 (0x867CE8C61B468B63BD8C7A3D192FBC67)
Полное имя : D:\D\Дом, который построил Свифт (1982)\Дом, который построил Свифт.1982.DVDRip-AVC.[pirat.ca]\Свифт-2.mkv
Формат : Matroska
Версия формата : Version 2
Размер файла : 1,12 Гбайт
Продолжительность : 1 ч. 3 м.
Общий поток : 2523 Кбит/сек
Дата кодирования : UTC 2015-09-17 17:31:41
Программа кодирования : mkvmerge v5.8.0 ('No Sleep / Pillow') built on Sep 2 2012 15:37:04
Библиотека кодирования : libebml v1.2.3 + libmatroska v1.3.0
Видео
Идентификатор : 1
Формат : AVC
Формат/Информация : Advanced Video Codec
Профиль формата : [email protected]
Параметр CABAC формата : Да
Параметр ReFrames формата : 15 кадров
Идентификатор кодека : V_MPEG4/ISO/AVC
Продолжительность : 1 ч. 3 м.
Битрейт : 2249 Кбит/сек
Ширина : 720 пикселей
Высота : 576 пикселей
Соотношение сторон : 4:3
Режим частоты кадров : Постоянный
Частота кадров : 25,000 кадров/сек
Стандарт вещания : PAL
Цветовое пространство : YUV
Субдискретизация насыщенности : 4:2:0
Битовая глубина : 8 бит
Тип развёртки : Прогрессивная
Бит/(Пиксели*Кадры) : 0.217
Размер потока : 1020 Мбайт (89%)
Библиотека кодирования : x264 core 146 r2538 121396c
Настройки программы : cabac=1 / ref=15 / deblock=1:-2:-2 / analyse=0x3:0x133 / me=umh / subme=10 / psy=1 / psy_rd=1.05:0.10 / mixed_ref=1 / me_range=32 / chroma_me=1 / trellis=2 / 8x8dct=1 / cqm=0 / deadzone=21,11 / fast_pskip=1 / chroma_qp_offset=-3 / threads=12 / lookahead_threads=2 / sliced_threads=0 / nr=0 / decimate=1 / interlaced=0 / bluray_compat=0 / constrained_intra=0 / bframes=9 / b_pyramid=2 / b_adapt=2 / b_bias=0 / direct=1 / weightb=1 / open_gop=0 / weightp=2 / keyint=250 / keyint_min=25 / scenecut=40 / intra_refresh=0 / rc=crf / mbtree=0 / crf=19.5 / qcomp=0.65 / qpmin=0 / qpmax=39 / qpstep=4 / ip_ratio=1.40 / pb_ratio=1.30 / aq=1:1.00
Язык : English
Default : Да
Forced : Нет
Цветовой диапазон : Limited
Основные цвета : BT.601 PAL
Характеристики трансфера : BT.470 System B, BT.470 System G
Коэффициенты матрицы : BT.601
Аудио
Идентификатор : 2
Формат : AC-3
Формат/Информация : Audio Coding 3
Расширение режима : CM (complete main)
Параметр Endianness формата : Big
Идентификатор кодека : A_AC3
Продолжительность : 1 ч. 3 м.
Вид битрейта : Постоянный
Битрейт : 224 Кбит/сек
Каналы : 1 канал
Расположение каналов : Front: C
Частота : 48,0 КГц
Частота кадров : 31,250 кадров/сек (1536 spf)
Метод сжатия : С потерями
Размер потока : 102 Мбайт (9%)
Язык : Russian
Default : Да
Forced : Нет
Download / Скачать

Хотите скачать бесплатно? Зарегистрируйтесь на сайте (ссылка на регистрацию). Pirat.ca - самый быстрый торрент трекер в рунете!

Как скачивать  ·   Что такое торрент  ·   Рейтинг и ограничения

Показать сообщения:    
Ответить на тему

Текущее время: Сегодня 18:47

Часовой пояс: GMT + 4



Вы не можете начинать темы
Вы не можете отвечать на сообщения
Вы не можете редактировать свои сообщения
Вы не можете удалять свои сообщения
Вы не можете голосовать в опросах
Вы не можете прикреплять файлы к сообщениям
Вы не можете скачивать файлы

▼ Вниз