Уважаемый Гость!
Вы можете поддержать проект и зарегистрироваться у наших партнеров - онлайн-стратегия MyLands. При регистрации в игре Вы получите код, который сможете активировать после регистрации на pirat.ca и получить 1000 дублонов.

Ваш код:
c3df3593b7e92c46a7f148532288877dd0fd0319
 
     

У тихой пристани (Эдуард Абалов, Тамаз Мелиава) [1958 г., комедия, DVDRip-AVC]

Ответить на тему
 
Автор
Сообщение

Пост 24-Дек-2016 07:37

[Q] 

somik

-У тихой пристани-- Производство: СССР, Мосфильм
Режиссер: Эдуард Абалов, Тамаз Мелиава
Жанр: комедия
Год выпуска: 1958 г.
Продолжительность: 01:08:56
Российская премьера: 1958 СССР
Дата выхода DVD: 21 мая 2009, «Мастер Тэйп»
В ролях: Владимир Ратомский, Василий Меркурьев, Татьяна Гурецкая, Афанасий Белов, Анатолий Кубацкий, Борис Новиков, Эммануил Геллер, Е.Лилина, Павел Волков, Валентин Брылеев, А.Гамбург, Витя Ларин, Георгий Георгиу, Виктория Духина, Виктор Кольцов-Описание: 50-е годы. Старый рабочий Колячкин и бывший актер Пушков никак не могут дойти до речки порыбачить, все им что-нибудь мешает: то они малышей в детский сад ведут, то старушку в дом пенсионеров устраивают. Начальника строительства они искупали в грязи на неотремонтированной дороге, кляузника отучили писать доносы, а хулигана и пьяницу купали в реке до полного перевоспитания.
Ветераны района оценили действия стариков и пригласили в свой клуб, цель которого «помогать молодому поколению стать достойными гражданами общества».-Сэмпл КиноПоиск
Качество видео: DVDRip-AVC
Контейнер: MKV
Видео кодек: MPEG4 AVC
Аудио кодек: AC3
Видео: 3200 Кбит/с, [email protected], 25,000 кадров/сек
Аудио: 48,0 КГц, AC3, 2 ch, 384 Кбит/с
Cубтитры: отсутствуют
Умели раньше снимать фильмы! Сюжет не так важен.
Главное, что после просмотра подобных советских комедий остается такое приятное легкое, светлое чувство на душе. Пусть иногда с привкусом «по заказу ГосКино», с чуть уловимым ароматом нашего советского прошлого и коммунистических установок. Но уж такие они теплые, добрые, солнечные, что на навязываемые идеи можно закрыть глаза.
Общее
Уникальный идентификатор : 243462582727333099496328080334843855186 (0xB72930165D1991838599ABC7B6C8C152)
Полное имя : J:\У тихой пристани (1958)\У тихой пристани.1958.DVDRip-AVC.[pirat.ca].mkv
Формат : Matroska
Версия формата : Version 2
Размер файла : 1,73 Гбайт
Продолжительность : 1 ч. 8 м.
Общий поток : 3586 Кбит/сек
Дата кодирования : UTC 2016-12-20 23:19:11
Программа кодирования : mkvmerge v7.8.0 ('River Man') 32bit built on Apr 3 2015 12:11:22
Библиотека кодирования : libebml v1.3.1 + libmatroska v1.4.2
Видео
Идентификатор : 1
Формат : AVC
Формат/Информация : Advanced Video Codec
Профиль формата : [email protected]
Параметр CABAC формата : Да
Параметр ReFrames формата : 14 кадров
Идентификатор кодека : V_MPEG4/ISO/AVC
Продолжительность : 1 ч. 8 м.
Битрейт : 3200 Кбит/сек
Ширина : 678 пикселей
Высота : 562 пикселя
Соотношение сторон : 1,286
Соотношение сторон в оригинале : 1,287
Режим частоты кадров : Постоянный
Частота кадров : 25,000 кадров/сек
Цветовое пространство : YUV
Субдискретизация насыщенности : 4:2:0
Битовая глубина : 8 бит
Тип развёртки : Прогрессивная
Бит/(Пиксели*Кадры) : 0.336
Размер потока : 1,51 Гбайт (87%)
Библиотека кодирования : x264 core 148 r2638 7599210
Настройки программы : cabac=1 / ref=14 / deblock=1:-2:-2 / analyse=0x3:0x133 / me=umh / subme=10 / psy=1 / psy_rd=1.05:0.15 / mixed_ref=1 / me_range=32 / chroma_me=1 / trellis=2 / 8x8dct=1 / cqm=0 / deadzone=21,11 / fast_pskip=0 / chroma_qp_offset=-3 / threads=4 / lookahead_threads=1 / sliced_threads=0 / nr=0 / decimate=0 / interlaced=0 / bluray_compat=0 / constrained_intra=0 / bframes=16 / b_pyramid=2 / b_adapt=2 / b_bias=0 / direct=3 / weightb=1 / open_gop=0 / weightp=2 / keyint=250 / keyint_min=25 / scenecut=40 / intra_refresh=0 / rc=2pass / mbtree=0 / bitrate=3200 / ratetol=1.0 / qcomp=0.60 / qpmin=0 / qpmax=69 / qpstep=4 / cplxblur=20.0 / qblur=0.5 / ip_ratio=1.40 / pb_ratio=1.30 / aq=1:1.00
Язык : English
Default : Да
Forced : Нет
Цветовой диапазон : Limited
Основные цвета : BT.601 NTSC
Характеристики трансфера : BT.601
Коэффициенты матрицы : BT.601
Аудио
Идентификатор : 2
Формат : AC-3
Формат/Информация : Audio Coding 3
Расширение режима : CM (complete main)
Параметр Endianness формата : Big
Идентификатор кодека : A_AC3
Продолжительность : 1 ч. 8 м.
Вид битрейта : Постоянный
Битрейт : 384 Кбит/сек
Каналы : 2 канала
Расположение каналов : Front: L R
Частота : 48,0 КГц
Частота кадров : 31,250 кадров/сек (1536 spf)
Метод сжатия : С потерями
Размер потока : 189 Мбайт (11%)
Default : Да
Forced : Нет
Download / Скачать

Хотите скачать бесплатно? Зарегистрируйтесь на сайте (ссылка на регистрацию). Pirat.ca - самый быстрый торрент трекер в рунете!

Как скачивать  ·   Что такое торрент  ·   Рейтинг и ограничения

Показать сообщения:    
Ответить на тему

Текущее время: Сегодня 21:02

Часовой пояс: GMT + 4



Вы не можете начинать темы
Вы не можете отвечать на сообщения
Вы не можете редактировать свои сообщения
Вы не можете удалять свои сообщения
Вы не можете голосовать в опросах
Вы не можете прикреплять файлы к сообщениям
Вы не можете скачивать файлы

▼ Вниз