ML
     
  Уважаемый Гость!
Вы можете поддержать проект и зарегистрироваться у наших партнеров - онлайн-стратегия MyLands. При регистрации в игре Вы получите код, который сможете активировать после регистрации на pirat.ca и получить 1000 дублонов.

Ваш код:
2cea854bae06d26241aab7fdd5e780021cf3d3fc
 
     

Чекист (Александр Рогожкин) [1991 г., драма, DVDRip]

Ответить на тему
 
Автор
Сообщение

Пост 30-Дек-2016 13:14

[Q] 

somik

-Чекист-- Производство: Россия, Франция, Sodaperaga Productions, Trinity Bridge Studio, Ленфильм
Режиссер: Александр Рогожкин
Жанр: драма
Год выпуска: 1991 г.
Продолжительность: 01:25:13
Российская премьера: 16 сентября 1992
В ролях: Игорь Сергеев,Алексей Полуян,Михаил Вассербаум,Сергей Исавнин,Василий Домрачев,Александр Медведев,Александр Харашкевич,Игорь Головин,Нина Усатова,Виктор Хозяинов-Описание: Действие происходит в страшные времена «красного террора», когда без суда и следствия были уничтожены миллионы людей. Кто приводил в действие адскую машину смерти? Психологический портрет революционного палача — в центре фильма.-Сэмпл КиноПоиск
Качество видео: DVDRip
Контейнер: AVI
Видео кодек: DivX
Аудио кодек: AC3
Видео: 704x496, 25 fps, DivX Codec 1338 ~2199 kbps avg, 0.25 bit/pixel
Аудио: 48 kHz, AC3 Dolby Digital, 2/0 (L,R) ch, ~192.00 kbps avg
Cубтитры: отсутствуют
Фильм снят по повести Владимира Зазубрина «Щепка» (1923).
Запрещён к показу на всех каналах TV в РФ
Я поставила этому фильму высокую оценку, но я больше никогда в жизни не буду его смотреть. Потому что фильмов такого рода остается ощущение глубокой депрессии, и это состояние длится как минимум несколько дней.
В центре картины — комиссар ЧК, который руководит расстрелами «неугодных» новой власти людей. В неугодные попадают все: студенты, врачи, священники, проститутки, матросы. Идейные и не имеющие никаких политических взглядов, достойные и подонки, интеллигенты и бродяги — все они попадают в огромный красный конвейер, который перемалывает их в груду мертвого мяса без суда и следствия. А во главе этого конвейера стоит комиссар Андрей Срубов, для которого эти расстрелы не более чем работа.
Но так ли отрицателен его персонаж? По ходу фильма зритель видит как комиссар как бы просыпается от этого отрешенного состояния, с которым он воспринимал ежедневные смерти, и это приводит к безумию героя.
Очень страшно показаны расстрелы. Голых людей загоняют в огромную комнату и уничтожают. Кто-то воспринимает это с холодным спокойствием, кто-то кричит и впадает в истерику, но в конечном итоге все они будут мертвы и «уборщики» сбросают их в одну безобразную кучу и увезут хоронить в безымянную могилу.
Но не только Срубов мучается от неправильных действий власти. Другие исполнители тоже теряют разум, осознавая, что хотя официальная власть и отрицает Бога, но рано или поздно им придется держать ответ перед ним, и ответ этот будет пострашнее ответа в земной жизни.
Страх, боль и ненависть — вот три ключевых слова, которыми можно определить эту картину. Если имеете крепкие нервы — посмотрите, ведь несмотря на жуткий сюжет, фильм потрясающ тем, что очень точно показывает перерождение человека и катарсис личности.
бщее
Полное имя : E:\Чекист (1991) DVDRip\Чекист.1991.DVDRip.[pirat.ca].avi
Формат : AVI
Формат/Информация : Audio Video Interleave
Размер файла : 1,43 Гбайт
Продолжительность : 1 ч. 25 м.
Общий поток : 2401 Кбит/сек
Программа кодирования : VirtualDubMod 1.5.10.2 (build 2540/release)
Библиотека кодирования : VirtualDubMod build 2540/release
Видео
Идентификатор : 0
Формат : MPEG-4 Visual
Параметр BVOP формата : 1
Параметр QPel формата : Нет
Параметр GMC формата : Без точки перехода
Параметр матрицы формата : Default (H.263)
Режим смешивания : Сжатый битовый поток
Идентификатор кодека : DX50
Идентификатор кодека/Подсказка : DivX 5
Продолжительность : 1 ч. 25 м.
Битрейт : 2200 Кбит/сек
Ширина : 704 пикселя
Высота : 496 пикселей
Соотношение сторон : 1,419
Частота кадров : 25,000 кадров/сек
Цветовое пространство : YUV
Субдискретизация насыщенности : 4:2:0
Битовая глубина : 8 бит
Тип развёртки : Прогрессивная
Метод сжатия : С потерями
Бит/(Пиксели*Кадры) : 0.252
Размер потока : 1,31 Гбайт (92%)
Библиотека кодирования : DivX 5.2.1 (DrDivX 106) (UTC 2004-09-08)
Аудио
Идентификатор : 1
Формат : AC-3
Формат/Информация : Audio Coding 3
Расширение режима : CM (complete main)
Параметр Endianness формата : Big
Идентификатор кодека : 2000
Продолжительность : 1 ч. 25 м.
Вид битрейта : Постоянный
Битрейт : 192 Кбит/сек
Каналы : 2 канала
Расположение каналов : Front: L R
Частота : 48,0 КГц
Частота кадров : 31,250 кадров/сек (1536 spf)
Метод сжатия : С потерями
Размер потока : 117 Мбайт (8%)
Выравнивание : Разделение по промежуткам
Продолжительность промежутка : 40 мс. (1,00 видеокадр)
Время предзагрузки промежутка : 500 мс.
Download / Скачать

Хотите скачать бесплатно? Зарегистрируйтесь на сайте (ссылка на регистрацию). Pirat.ca - самый быстрый торрент трекер в рунете!

Как скачивать  ·   Что такое торрент  ·   Рейтинг и ограничения

somik ®

37385

Пост 30-Дек-2016 13:26 (спустя 12 минут)

[Q] 

Фильм очень тяжёлый морально. Я бы назвал его "Палач"... ah

_________________
Всё когда-нибудь уже было... В интернете!
[Профиль]  [ЛС] 

rtpanda

Лоцман

Пост 31-Дек-2016 05:33 (спустя 16 часов)

[Q] 

Дебильная чернуха . К просмотру рекомендуется только для облегчения желудка .
[Профиль]  [ЛС] 

raul kurochka

Флибустьер

Пост 31-Дек-2016 16:23 (спустя 10 часов)

[Q] 

780365Фильм очень тяжёлый морально. Я бы назвал его "Палач"... ah
насколько помню тяжелее чем "Иди и Смотри". Надо пересмотреть. Забираю.
p.s. сорян, бро - промахнулся и каменту вместо плюса минус вкатал(
За труды спс
Лови бочку

_________________
...ЧО ТАКОЙ СЕРЬЕЗНЫЙ???
[Профиль]  [ЛС] 

mash8055

Штурман

Пост 01-Янв-2017 16:40 (спустя 1 день)

[Q] 

Мерзкий лживый фильм. 1991 год начало переписывания истории СССР.
[Профиль]  [ЛС] 
Показать сообщения:    
Ответить на тему

Текущее время: Сегодня 02:24

Часовой пояс: GMT + 4



Вы не можете начинать темы
Вы не можете отвечать на сообщения
Вы не можете редактировать свои сообщения
Вы не можете удалять свои сообщения
Вы не можете голосовать в опросах
Вы не можете прикреплять файлы к сообщениям
Вы не можете скачивать файлы

▼ Вниз