Уважаемый Гость!
Вы можете поддержать проект и зарегистрироваться у наших партнеров - онлайн-стратегия MyLands. При регистрации в игре Вы получите код, который сможете активировать после регистрации на pirat.ca и получить 1000 дублонов.

Ваш код:
33a1e7327cf6ae6cf90ffe8017517f3b8f2a0239
 
     

Трио (Александр Прошкин) [2003 г., детектив, 0+, DVDRip-AVC]

Ответить на тему
 
Автор
Сообщение

Пост 10-Янв-2017 17:04

[Q] 

somik

-Трио-- Производство: Россия, Киностудия "Телефильм", киноконцерн "Мосфильм", компания «Централ Партнершип»
Режиссер: Александр Прошкин
Жанр: детектив, 0+
Год выпуска: 2003 г.
Продолжительность: 01:42:00
Российская премьера: 9 октября 2003, «Централ Партнершип»
Дата выхода DVD: 13 ноября 2004, «CP-Digital»
В ролях: Андрей Панин, Михаил Пореченков, Мария Звонарева, Азиз Бейшеналиев, Олег Малахов, Александр Гришин, Игорь Гордин, Юрий Лагута, Прохор Зикора, Игорь Рудаков и др.-Описание: Трое оперативников из российской глубинки Николай, Алексей и Марина осуществляют секретную операцию по ликвидации банды, грабящей и сжигающей автофуры. Но не только профессиональный долг заставляет героев бесконечно колесить по дорогам. Поиски бандитов осложняются непростыми личными отношениями двух мужчин и одной женщины…-Сэмпл КиноПоиск
Качество видео: DVDRip-AVC
Контейнер: MKV
Видео кодек: MPEG4 AVC
Аудио кодек: AC3
Видео: 720x352 (2.045), 59,94 fps, 1294 kbps, [email protected]
Аудио: AC3, 448 Kbps, 48 kHz, 16 bit, 6 ch, 330 Mb
Cубтитры: отсутствуют
Довольно приятный фильм, радует, что роли у А. Панина и М. Пореченкова здесь полновесные, можно вдоволь насмотреться на их игру, даже через меру режиссер хватил. То, что в сюжете заявлено про любовный треугольник, то этот момент здесь действительно есть, но не ждите, что герои будут колебаться в выборе, только внимательный зритель эту интригу разглядит изначально, до меня дошло только ближе к итоговой сцене. Основная тема у фильма очень даже жизненная и работа у дальнобойщиков отнюдь не самая безопасная в мире. Только разбойный бандитизм на фуры со всякой всячиной это уже давно не актуальное явление даже для простых граждан наших необъятных просторов поэтому хорошо, что события в фильме демонстрируют нам конец 90х.
Женская роль мне понравилась, у актрисы такая универсальная фигура, что в форме она нейтральная, просто стройная женщина, но когда она работает под прикрытием, то даже я, как девушка поразилась, дешевая пошлость прямо таки скользит или ей специально давали команду как присесть и как развернуться, чтобы такой эффект был.
Пореченков меня не раздражает только в «Агенте национальной безопасности» и в военных лентах, но от Панина он отличается по всем своим фильмам, поэтому их так и подобрали. У Панина и именно Андрея, не Алексея, ведь есть и такой, здесь роль положительная и более спокойная, я даже его не сразу признала в таком амплуа. Хочется сказать как в песне, ну со скидкой на возраст конечно: «Парнишка весь простой и вовсе не красавиц я. А мне навстречу все девчонки улыбаются» и не потому, что смешон в чем-то, а харизма налицо просто.
По понятной причине, что здесь актер, которого я высоко оцениваю всегда и собственно сам фильм неплохой, явного бреда в фабуле и работе режиссера я не заметила, нет здесь тошнотворного прославления милиции-полиции, фильмы про которых я игнорирую и вижу в них только пропаганду того, чего на самом деле не бывает в природе этих людей.
9 из 10
Общее
Уникальный идентификатор : 228287912492086803462584314954094764927 (0xABBEA714CAD85737981F4D18381C637F)
Полное имя : J:\Трио (2003)\Трио.2003.DVDRip-AVC.[pirat.ca].mkv
Формат : Matroska
Версия формата : Version 2
Размер файла : 1,24 Гбайт
Продолжительность : 1 ч. 42 м.
Общий поток : 1740 Кбит/сек
Дата кодирования : UTC 2017-01-10 12:34:36
Программа кодирования : mkvmerge v5.3.0 ('I could have danced') built on Feb 9 2012 10:38:07
Библиотека кодирования : libebml v1.2.3 + libmatroska v1.3.0
Видео
Идентификатор : 1
Формат : AVC
Формат/Информация : Advanced Video Codec
Профиль формата : [email protected]
Параметр CABAC формата : Да
Параметр ReFrames формата : 12 кадров
Идентификатор кодека : V_MPEG4/ISO/AVC
Продолжительность : 1 ч. 42 м.
Битрейт : 1294 Кбит/сек
Ширина : 720 пикселей
Высота : 352 пикселя
Соотношение сторон : 2,045
Режим частоты кадров : Постоянный
Частота кадров : 59,940 (60000/1001) кадров/сек
Цветовое пространство : YUV
Субдискретизация насыщенности : 4:2:0
Битовая глубина : 8 бит
Тип развёртки : Прогрессивная
Бит/(Пиксели*Кадры) : 0.085
Размер потока : 917 Мбайт (72%)
Библиотека кодирования : x264 core 120 r2145 748fe16
Настройки программы : cabac=1 / ref=12 / deblock=1:-2:-2 / analyse=0x3:0x133 / me=umh / subme=11 / psy=1 / psy_rd=1.00:0.00 / mixed_ref=1 / me_range=32 / chroma_me=1 / trellis=2 / 8x8dct=1 / cqm=0 / deadzone=21,11 / fast_pskip=0 / chroma_qp_offset=-2 / threads=6 / sliced_threads=0 / nr=0 / decimate=0 / interlaced=0 / bluray_compat=0 / constrained_intra=0 / bframes=8 / b_pyramid=2 / b_adapt=2 / b_bias=0 / direct=3 / weightb=1 / open_gop=0 / weightp=2 / keyint=250 / keyint_min=25 / scenecut=40 / intra_refresh=0 / rc_lookahead=60 / rc=2pass / mbtree=1 / bitrate=1294 / ratetol=3.0 / qcomp=0.60 / qpmin=0 / qpmax=69 / qpstep=4 / cplxblur=20.0 / qblur=0.5 / ip_ratio=1.60 / aq=2:1.00 / zones=0,1030,b=0.5/358996,366840,b=0.6
Язык : Russian
Default : Да
Forced : Нет
Цветовой диапазон : Limited
Основные цвета : BT.709
Характеристики трансфера : BT.709
Коэффициенты матрицы : BT.709
Аудио
Идентификатор : 2
Формат : AC-3
Формат/Информация : Audio Coding 3
Расширение режима : CM (complete main)
Параметр Endianness формата : Big
Идентификатор кодека : A_AC3
Продолжительность : 1 ч. 42 м.
Вид битрейта : Постоянный
Битрейт : 448 Кбит/сек
Каналы : 6 каналов
Расположение каналов : Front: L C R, Side: L R, LFE
Частота : 48,0 КГц
Частота кадров : 31,250 кадров/сек (1536 spf)
Метод сжатия : С потерями
Размер потока : 327 Мбайт (26%)
Заголовок : AC3
Язык : Russian
Default : Да
Forced : Нет
Download / Скачать

Хотите скачать бесплатно? Зарегистрируйтесь на сайте (ссылка на регистрацию). Pirat.ca - самый быстрый торрент трекер в рунете!

Как скачивать  ·   Что такое торрент  ·   Рейтинг и ограничения

kugesan

61398

Пост 10-Янв-2017 18:14 (спустя 1 час 10 минут)

[Q] 

Недокроп

_________________
В мире две бесконечности: вселенная и человеческая глупость - Альберт Эйнштен
«Можно вытащить человека из грязи, но нельзя вытащить грязь из человека»!
[Профиль]  [ЛС] 

alersander

Корсар

Пост 10-Янв-2017 23:09 (спустя 4 часа)

[Q] 

Когда то смотрел отрывками Спасибо Лови бочку
[Профиль]  [ЛС] 
Показать сообщения:    
Ответить на тему

Текущее время: Сегодня 00:21

Часовой пояс: GMT + 4



Вы не можете начинать темы
Вы не можете отвечать на сообщения
Вы не можете редактировать свои сообщения
Вы не можете удалять свои сообщения
Вы не можете голосовать в опросах
Вы не можете прикреплять файлы к сообщениям
Вы не можете скачивать файлы

▼ Вниз