Уважаемый Гость!
Вы можете поддержать проект и зарегистрироваться у наших партнеров - онлайн-стратегия MyLands. При регистрации в игре Вы получите код, который сможете активировать после регистрации на pirat.ca и получить 1000 дублонов.

Ваш код:
cf60c35aba5d71789ac9920244f42e838e81817a
 
     

Похищение чародея (Виктор Кобзев) [1989 г., фантастика, DVDRip]

Ответить на тему
 
Автор
Сообщение

Пост 28-Янв-2017 19:12

[Q] 

somik

-Похищение чародея-- Производство: СССР, Свердловская киностудия
Режиссер: Виктор Кобзев
Жанр: фантастика
Год выпуска: 1989 г.
Продолжительность: 01:39:30
Российская премьера: Ноябрь 1989 СССР
В ролях: Юлия Ауг, Ромуалдас Раманаускас, Сергей Варчук, Владимир Гостюхин, Юрий Демич, Виктор Соловьев, Андрей Болтнев, Лев Борисов, Андрейс Жагарс, Виталий Четков-Описание: Молодая аспирантка Анна приезжает в родную деревню, где не была около 12 лет, в дом своей бабушки. Здесь, в деревенской тишине, она собирается писать диссертацию.
Вдруг в доме неожиданно появляются двое незнакомцев и утверждают, что хозяйка этого дома вчера сдала им его на две недели, а для большей убедительности включают телевизор, в котором появляется Анина мама, подтверждает это и просит ее пожить пока у их соседа. Все это выглядит очень странно…
Дальше происходит вообще нечто необъяснимое. Незнакомцы — говорят, что им необходимо отправиться в XIII век, чтобы найти там какого-то гения, проживающего в то время в этих краях, и забрать его с собой в будущее…-Сэмпл КиноПоиск
Качество видео: DVDRip
Контейнер: AVI
Видео кодек: XviD
Аудио кодек: AC3
Видео: 704x528 (1.33:1), 25 fps, XviD MPEG-4, 1895 kbps avg, 0.20 bit/pixel
Аудио: 48 kHz, AC3 Dolby Digital, 2/0 (L,R) ch, 192 kbps
Cубтитры: отсутствуют
Фильм снят по одноименной повести Кира Булычёва.
Общее
Полное имя : D:\D\Похищение чародея (1989) DVDRip\Похищение чародея.1989.DVDRip.[pirat.ca].avi
Формат : AVI
Формат/Информация : Audio Video Interleave
Размер файла : 1,46 Гбайт
Продолжительность : 1 ч. 39 м.
Общий поток : 2098 Кбит/сек
Программа кодирования : VirtualDubMod 1.5.10.2 (build 2540/release)
Библиотека кодирования : VirtualDubMod build 2540/release
Видео
Идентификатор : 0
Формат : MPEG-4 Visual
Профиль формата : Advanced [email protected]
Параметр BVOP формата : 2
Параметр QPel формата : Нет
Параметр GMC формата : Без точки перехода
Параметр матрицы формата : Default (MPEG)
Режим смешивания : Сжатый битовый поток
Идентификатор кодека : XVID
Идентификатор кодека/Подсказка : XviD
Продолжительность : 1 ч. 39 м.
Битрейт : 1896 Кбит/сек
Ширина : 704 пикселя
Высота : 528 пикселей
Соотношение сторон : 4:3
Частота кадров : 25,000 кадров/сек
Цветовое пространство : YUV
Субдискретизация насыщенности : 4:2:0
Битовая глубина : 8 бит
Тип развёртки : Прогрессивная
Метод сжатия : С потерями
Бит/(Пиксели*Кадры) : 0.204
Размер потока : 1,32 Гбайт (90%)
Библиотека кодирования : XviD 1.2.1 (UTC 2008-12-04)
Аудио
Идентификатор : 1
Формат : AC-3
Формат/Информация : Audio Coding 3
Расширение режима : CM (complete main)
Параметр Endianness формата : Big
Идентификатор кодека : 2000
Продолжительность : 1 ч. 39 м.
Вид битрейта : Постоянный
Битрейт : 192 Кбит/сек
Каналы : 2 канала
Расположение каналов : Front: L R
Частота : 48,0 КГц
Частота кадров : 31,250 кадров/сек (1536 spf)
Метод сжатия : С потерями
Задержка видео : 120 мс.
Размер потока : 137 Мбайт (9%)
Выравнивание : Разделение по промежуткам
Продолжительность промежутка : 40 мс. (1,00 видеокадр)
Время предзагрузки промежутка : 500 мс.
Download / Скачать

Хотите скачать бесплатно? Зарегистрируйтесь на сайте (ссылка на регистрацию). Pirat.ca - самый быстрый торрент трекер в рунете!

Как скачивать  ·   Что такое торрент  ·   Рейтинг и ограничения

axxell2006

Морской Волк

Пост 28-Янв-2017 21:01 (спустя 1 час 48 минут)

[Q] 

О! Спасибо, по-ностальгирую )

_________________
Родился в прошлом веке, в стране и городе которых больше нет.
[Профиль]  [ЛС] 
Показать сообщения:    
Ответить на тему

Текущее время: Сегодня 18:47

Часовой пояс: GMT + 4



Вы не можете начинать темы
Вы не можете отвечать на сообщения
Вы не можете редактировать свои сообщения
Вы не можете удалять свои сообщения
Вы не можете голосовать в опросах
Вы не можете прикреплять файлы к сообщениям
Вы не можете скачивать файлы

▼ Вниз