ML
     
  Уважаемый Гость!
Вы можете поддержать проект и зарегистрироваться у наших партнеров - онлайн-стратегия MyLands. При регистрации в игре Вы получите код, который сможете активировать после регистрации на pirat.ca и получить 1000 дублонов.

Ваш код:
a25c770f183766226fe2219887d66f72f7b3e2cf
 
     

Мой остров синий (Николай Сличенко, Леонид Пекур) [1972 г., драма, комедия, музыкальный фильм, приключения, экранизация, 0+, DVDRip]

Ответить на тему
 
Автор
Сообщение

Пост 29-Янв-2017 11:23

[Q] 

somik

-Мой остров синий-- Производство: СССР, Гостелерадио, Театр "Ромэн"
Режиссер: Николай Сличенко, Леонид Пекур
Жанр: драма, комедия, музыкальный фильм, приключения, экранизация, 0+
Год выпуска: 1972 г.
Продолжительность: 01:26:22
Российская премьера: 8 июля 1972 СССР
Дата выхода DVD: 1 февраля 2011, «Первая Видеокомпания»
В ролях: Николай Сличенко, Борис Ташкентский, Земфира Жемчужная, Василий Туманский, Александр Якулов, Петр Модников-Описание: Предводитель разбойников Ринальдо отнимает деньги и имущество у богачей, помогая беднякам. Однако вскоре он со своими товарищами вынужден будет сделать выбор — служить врагам или встать на сторону повстанцев-гарибальдийцев, которые борются за свободу Италии.-Сэмпл КиноПоиск
Качество видео: DVDRip
Контейнер: AVI
Видео кодек: XviD
Аудио кодек: AC3
Видео: 704x528 (1.33:1), 25 fps, XviD MPEG-4, 2065 kbps avg, 0.22 bit/pixel
Аудио: 48 kHz, AC3 Dolby Digital, 2/0 (L,R) ch, 192 kbps
Cубтитры: отсутствуют
По пьесе итальянских драматургов П.Гаринеи и С.Джованнини "Ты герой, я герой" в постановке Московского цыганского театра "Ромэн".
Общее
Полное имя : E:\Мой остров синий (1972)\Moj ostrov sinij.1972.DVDRip.[pirat.ca].avi
Формат : AVI
Формат/Информация : Audio Video Interleave
Размер файла : 1,37 Гбайт
Продолжительность : 1 ч. 26 м.
Общий поток : 2268 Кбит/сек
Программа кодирования : VirtualDubModRus 1.5.10.2 (build 2542/release)
Библиотека кодирования : VirtualDubMod build 2542/release
Видео
Идентификатор : 0
Формат : MPEG-4 Visual
Профиль формата : Advanced [email protected]
Параметр BVOP формата : 2
Параметр QPel формата : Нет
Параметр GMC формата : Без точки перехода
Параметр матрицы формата : Default (MPEG)
Режим смешивания : Сжатый битовый поток
Идентификатор кодека : XVID
Идентификатор кодека/Подсказка : XviD
Продолжительность : 1 ч. 26 м.
Битрейт : 2066 Кбит/сек
Ширина : 704 пикселя
Высота : 528 пикселей
Соотношение сторон : 4:3
Частота кадров : 25,000 кадров/сек
Цветовое пространство : YUV
Субдискретизация насыщенности : 4:2:0
Битовая глубина : 8 бит
Тип развёртки : Прогрессивная
Метод сжатия : С потерями
Бит/(Пиксели*Кадры) : 0.222
Размер потока : 1,25 Гбайт (91%)
Библиотека кодирования : XviD 1.2.1 (UTC 2008-12-04)
Аудио
Идентификатор : 1
Формат : AC-3
Формат/Информация : Audio Coding 3
Расширение режима : CM (complete main)
Параметр Endianness формата : Big
Идентификатор кодека : 2000
Продолжительность : 1 ч. 26 м.
Вид битрейта : Постоянный
Битрейт : 192 Кбит/сек
Каналы : 2 канала
Расположение каналов : Front: L R
Частота : 48,0 КГц
Частота кадров : 31,250 кадров/сек (1536 spf)
Метод сжатия : С потерями
Размер потока : 119 Мбайт (8%)
Выравнивание : Соединение по промежуткам
Продолжительность промежутка : 40 мс. (1,00 видеокадр)
Время предзагрузки промежутка : 512 мс.
Download / Скачать

Хотите скачать бесплатно? Зарегистрируйтесь на сайте (ссылка на регистрацию). Pirat.ca - самый быстрый торрент трекер в рунете!

Как скачивать  ·   Что такое торрент  ·   Рейтинг и ограничения

balamutych 8

Корсар

Пост 04-Фев-2017 03:08 (спустя 5 дней)

[Q] 

Спасибо-заценим
[Профиль]  [ЛС] 
Показать сообщения:    
Ответить на тему

Текущее время: Сегодня 10:55

Часовой пояс: GMT + 4



Вы не можете начинать темы
Вы не можете отвечать на сообщения
Вы не можете редактировать свои сообщения
Вы не можете удалять свои сообщения
Вы не можете голосовать в опросах
Вы не можете прикреплять файлы к сообщениям
Вы не можете скачивать файлы

▼ Вниз