ML
     
  Уважаемый Гость!
Вы можете поддержать проект и зарегистрироваться у наших партнеров - онлайн-стратегия MyLands. При регистрации в игре Вы получите код, который сможете активировать после регистрации на pirat.ca и получить 1000 дублонов.

Ваш код:
c3360d664ceb84802c84b88ed062a5d134e2ba97
 
     

Пароль знали двое (Николай Литус) [1985 г., боевик, DVDRip]

Ответить на тему
 
Автор
Сообщение

Пост 18-Фев-2012 21:11

[Q] 

feldeger

Пароль знали двое
Год выпуска: 1985
Жанр: боевик
Продолжительность: 01:21:21
Режиссер: Николай Литус
В ролях: Ирина Алферова, Аристарх Ливанов, Борис Соколов, Алексей Булдаков, Степан Олексенко, Людмила Шевель, Николай Гринько, Константин Степанков, Людмила Сосюра, Андрей Поддубенский..
Описание: 20-ые годы. Граф Кабардин, эмигрировавший во Францию, посылает в Россию полковника Лаврова с целью привезти дочь Ирину в Париж. Ирина вышла замуж за чекиста Андрея Славинского и перешла на сторону революции.
Под видом белогвардейского поручика Андрей послан во Францию. Он выполняет секретное задание разведки. Но Ирина считает, что муж погиб. Председатель ВЧК, узнав о визите Лаврова, предоставляет ему возможность увезти Ирину во Францию и предает ей новое задание и пароль для Андрея.
Доп. информация: Рип сделан с DVD5 nevzorov54, за который ему спасибо.
Источник/Качество: DVDRip
Формат: AVI
Видео кодек: XviD
Аудио кодек: AC3
Видео: 720x352 (2.05:1), 25 fps, XviD build 64 ~1101 kbps avg, 0.17 bit/pixel
Аудио: 48 kHz, AC3 Dolby Digital, 2/0 (L,R) ch, ~224 kbps
General
Complete name : D:\Torrent\Parol.znali.dvoe.1985.DVDRip.by_feld.avi
Format : AVI
Format/Info : Audio Video Interleave
File size : 777 MiB
Duration : 1h 21mn
Overall bit rate : 1 335 Kbps
Writing application : VirtualDubModRus 1.5.10.2 (build 2542/release)
Writing library : VirtualDubMod build 2542/release
Video
ID : 0
Format : MPEG-4 Visual
Format profile : Advanced [email protected]
Format settings, BVOP : Yes
Format settings, QPel : No
Format settings, GMC : No warppoints
Format settings, Matrix : Default (MPEG)
Codec ID : XVID
Codec ID/Hint : XviD
Duration : 1h 21mn
Bit rate : 1 101 Kbps
Width : 720 pixels
Height : 352 pixels
Display aspect ratio : 2.045
Frame rate : 25.000 fps
Color space : YUV
Chroma subsampling : 4:2:0
Bit depth : 8 bits
Scan type : Progressive
Bits/(Pixel*Frame) : 0.174
Stream size : 641 MiB (82%)
Writing library : XviD 64
Audio
ID : 1
Format : AC-3
Format/Info : Audio Coding 3
Mode extension : CM (complete main)
Codec ID : 2000
Duration : 1h 21mn
Bit rate mode : Constant
Bit rate : 224 Kbps
Channel(s) : 2 channels
Channel positions : Front: L R
Sampling rate : 48.0 KHz
Bit depth : 16 bits
Stream size : 130 MiB (17%)
Alignment : Split accross interleaves
Interleave, duration : 40 ms (1.00 video frame)
Interleave, preload duration : 500 ms
Download / Скачать

Хотите скачать бесплатно? Зарегистрируйтесь на сайте (ссылка на регистрацию). Pirat.ca - самый быстрый торрент трекер в рунете!

Как скачивать  ·   Что такое торрент  ·   Рейтинг и ограничения

Пост 19-Фев-2012 10:10 (спустя 12 часов)

Топик был перенесен из форума Наше Кино в форум Советское кино

Skinwalker
 
Показать сообщения:    
Ответить на тему

Текущее время: Сегодня 10:05

Часовой пояс: GMT + 4



Вы не можете начинать темы
Вы не можете отвечать на сообщения
Вы не можете редактировать свои сообщения
Вы не можете удалять свои сообщения
Вы не можете голосовать в опросах
Вы не можете прикреплять файлы к сообщениям
Вы не можете скачивать файлы

▼ Вниз