ML
     
  Уважаемый Гость!
Вы можете поддержать проект и зарегистрироваться у наших партнеров - онлайн-стратегия MyLands. При регистрации в игре Вы получите код, который сможете активировать после регистрации на pirat.ca и получить 1000 дублонов.

Ваш код:
a978488e62322cd72e113ab723b8a7fdc10eb9b9
 
     

Оптимистическая трагедия (Самсон Самсонов) [1963 г., военно-историческая драма, DVDRip]

Ответить на тему
 
Автор
Сообщение

Пост 23-Фев-2012 00:54

[Q] 

feldeger

Оптимистическая трагедия
Год выпуска: 1963
Жанр: военно-историческая драма
Продолжительность: 01:53:37
Режиссер: Самсон Самсонов
В ролях: Маргарита Володина, Борис Андреев, Вячеслав Тихонов, Всеволод Санаев, Всеволод Сафонов, Эраст Гарин, Олег Стриженов, Глеб Стриженов, Иван Жеваго, Вероника Бужинская, Алексей Глазырин, Семен Свашенко, О.Бьернинен, Даниил Нетребин, Любовь Соколова
Описание: Фильм, поставленный по пьесе Всеволода Вишневского, рассказывает о драматических событиях на одном из кораблей революционного флота в 1917 году.
1918 год. В отряд матросов-анархистов, который возглавляет анархист Вожак, от ЦК партии большевиков назначен комиссар. Ей поручено переформировать отряд в Первый матросский полк. Единственный оставшийся на корабле живой офицер должен стать его командиром и вместе с комиссаром повести полк на фронт.
Доп. информация: Лучший фильм года. Маргарита Володина — лучшая актриса года по опросу журнала «Советский экран».
Лидер проката (1963, 1 место) — 46 млн зрителей.
Автору рипа Slava47 огромная благодарность.
Источник/Качество: DVDRip
Формат: AVI
Видео кодек: XviD
Аудио кодек: AC3
Видео: 688x512 (1.34:1), 25 fps, XviD MPEG-4 ~1601 kbps avg, 0.18 bit/pixel
Аудио: 48 kHz, AC3 Dolby Digital, 1/0 (C) ch, ~112 kbps
General
Complete name : D:\Torrent\Ortimisticheskaja_tragedija_DVDRip.avi
Format : AVI
Format/Info : Audio Video Interleave
File size : 1.37 GiB
Duration : 1h 53mn
Overall bit rate : 1 724 Kbps
Writing application : VirtualDubModRus 1.5.10.2 (build 2542/release)
Writing library : VirtualDubMod build 2542/release
Video
ID : 0
Format : MPEG-4 Visual
Format profile : Advanced [email protected]
Format settings, BVOP : Yes
Format settings, QPel : No
Format settings, GMC : No warppoints
Format settings, Matrix : Default (MPEG)
Muxing mode : Packed bitstream
Codec ID : XVID
Codec ID/Hint : XviD
Duration : 1h 53mn
Bit rate : 1 602 Kbps
Width : 688 pixels
Height : 512 pixels
Display aspect ratio : 4:3
Frame rate : 25.000 fps
Color space : YUV
Chroma subsampling : 4:2:0
Bit depth : 8 bits
Scan type : Progressive
Bits/(Pixel*Frame) : 0.182
Stream size : 1.27 GiB (93%)
Writing library : XviD 1.2.1 (UTC 2008-12-04)
Audio
ID : 1
Format : AC-3
Format/Info : Audio Coding 3
Mode extension : CM (complete main)
Codec ID : 2000
Duration : 1h 53mn
Bit rate mode : Constant
Bit rate : 112 Kbps
Channel(s) : 1 channel
Channel positions : Front: C
Sampling rate : 48.0 KHz
Bit depth : 16 bits
Stream size : 91.0 MiB (6%)
Alignment : Aligned on interleaves
Interleave, duration : 40 ms (1.00 video frame)
Interleave, preload duration : 512 ms
Download / Скачать

Хотите скачать бесплатно? Зарегистрируйтесь на сайте (ссылка на регистрацию). Pirat.ca - самый быстрый торрент трекер в рунете!

Как скачивать  ·   Что такое торрент  ·   Рейтинг и ограничения

Пост 23-Фев-2012 00:57 (спустя 2 минуты)

Топик был перенесен из форума Наше Кино в форум Советское кино

Skinwalker
 

Принц Датский

Корсар

Пост 23-Фев-2012 09:42 (спустя 8 часов)

[Q] 

это круто,брат-для тех,кто в теме!!!

_________________
[Профиль]  [ЛС] 

feldeger ®

1566

Пост 23-Фев-2012 13:54 (спустя 4 часа)

[Q] 

Принц Датский, согласен. Серьезное кино.

_________________
Полетел основной комп. Пауза...
[Профиль]  [ЛС] 

xdgx

Флибустьер

Пост 25-Фев-2012 10:45 (спустя 1 день 20 часов)

[Q] 

[Профиль]  [ЛС] 

feldeger ®

1566

Пост 25-Фев-2012 13:10 (спустя 2 часа 24 минуты)

[Q] 

xdgx, на доброе здоровье!

_________________
Полетел основной комп. Пауза...
[Профиль]  [ЛС] 

demonstranik

Лоцман

Пост 06-Окт-2013 11:14 (спустя 1 год 7 месяцев)

[Q] 

Спасибо за релиз!
http://www.pirat.ca/?r=il00736011
[Профиль]  [ЛС] 

NektoWaso

Флибустьер

Пост 28-Окт-2013 20:29 (спустя 22 дня)

[Q] 

ХОРОШИЙ ФИЛЬМ! В.Тихонов очень хорош!
[Профиль]  [ЛС] 
Показать сообщения:    
Ответить на тему

Текущее время: Сегодня 22:07

Часовой пояс: GMT + 4



Вы не можете начинать темы
Вы не можете отвечать на сообщения
Вы не можете редактировать свои сообщения
Вы не можете удалять свои сообщения
Вы не можете голосовать в опросах
Вы не можете прикреплять файлы к сообщениям
Вы не можете скачивать файлы

▼ Вниз