ML
     
  Уважаемый Гость!
Вы можете поддержать проект и зарегистрироваться у наших партнеров - онлайн-стратегия MyLands. При регистрации в игре Вы получите код, который сможете активировать после регистрации на pirat.ca и получить 1000 дублонов.

Ваш код:
cc3be08b7507661c03e0a2f582d0da3a659ea55a
 
     

Живет такой парень (Василий Шукшин) [1964 г., Киноповесть, DVDRip]

Ответить на тему
 
Автор
Сообщение

Пост 24-Фев-2012 12:33

[Q] 

megamastor

Живет такой парень
Год выпуска: 1964
Жанр: Киноповесть
Продолжительность: 01:35:15
Режиссер: Василий Шукшин
В ролях: Леонид Куравлёв, Лидия Чащина, Лариса Буркова, Ренита Григорьева, Нина Сазонова, Анастасия Зуева, Белла Ахмадулина, Борис Балакин, Родион Нахапетов, Виктор Филиппов, Иван Рыжов, Николай Федорцов, Евгений Тетерин, Б. Романов
Описание: Киноповесть о простом алтайском шофере Пашке Колокольникове, бесконечно влюбленном в жизнь, веселом, добром и отзывчивом, который, рискуя жизнью, предотвращает пожар бензовоза. Балагур с набором пошловатых, провинциальных присказок и выраженьиц, он любит розыгрыш, любит распустить хвост, приврать, пошутить и поприкалываться, но может и подвиг совершить…
Источник/Качество: DVDRip
Формат: AVI
Видео кодек: XviD
Аудио кодек: AC3
Видео: 592x448, 25 fps, XviD1.2.0, 1600 Кбит/сек, 0.241bit/pixel
Аудио: 48,0 КГц, AC-3, 6 каналов, 448 Кбит/сек
Общее
Полное имя : D:\Piratca\Repair\jivet_takoi_paren_[pirat.ca].avi
Формат : AVI
Формат/Информация : Audio Video Interleave
Размер файла : 1,37 Гбайт
Продолжительность : 1 ч. 35 м.
Общий поток : 2055 Кбит/сек
Название фильма : Zhivyot.takoy.paren
Программа кодирования : VirtualDubMod 1.5.4.1 (build 2178/release)
Видео
Идентификатор : 0
Формат : MPEG-4 Visual
Профиль формата : Advanced [email protected]
Параметр BVOP формата : 1
Параметр QPel формата : Нет
Параметр GMC формата : Без точки перехода
Параметр матрицы формата : Default (H.263)
Режим смешивания : Сжатый битовый поток
Идентификатор кодека : XVID
Идентификатор кодека/Подсказка : XviD
Продолжительность : 1 ч. 35 м.
Битрейт : 1600 Кбит/сек
Ширина : 592 пикселя
Высота : 448 пикселей
Соотношение сторон : 4:3
Частота кадров : 25,000 кадров/сек
Цветовое пространство : YUV
Субдискретизация насыщенности : 4:2:0
Битовая глубина : 8 бит
Тип развёртки : Прогрессивная
Метод сжатия : С потерями
Бит/(Пиксели*Кадры) : 0.241
Размер потока : 1,06 Гбайт (78%)
Библиотека кодирования : XviD 1.2.0SMP (UTC 2006-01-08)
Аудио
Идентификатор : 1
Формат : AC-3
Формат/Информация : Audio Coding 3
Расширение режима : CM (complete main)
Идентификатор кодека : 2000
Продолжительность : 1 ч. 35 м.
Вид битрейта : Постоянный
Битрейт : 448 Кбит/сек
Каналы : 6 каналов
Расположение каналов : Front: L C R, Side: L R, LFE
Частота : 48,0 КГц
Битовая глубина : 16 бит
Метод сжатия : С потерями
Задержка видео : 1 с. 86 мс.
Размер потока : 305 Мбайт (22%)
Выравнивание : Разделение по промежуткам
Продолжительность промежутка : 80 мс. (2,00 видеокадра)
Время предзагрузки промежутка : 500 мс.
Download / Скачать

Хотите скачать бесплатно? Зарегистрируйтесь на сайте (ссылка на регистрацию). Pirat.ca - самый быстрый торрент трекер в рунете!

Как скачивать  ·   Что такое торрент  ·   Рейтинг и ограничения

Пост 24-Фев-2012 13:39 (спустя 1 час 6 минут)

Топик был перенесен из форума Наше Кино в форум Советское кино

Skinwalker
 

xdgx

Флибустьер

Пост 27-Фев-2012 21:46 (спустя 3 дня)

[Q] 

[Профиль]  [ЛС] 

ksg111ban

Гроза морей

Пост 04-Мар-2012 18:45 (спустя 5 дней)

[Q] 

Роль принёсшая Куравлеву популярность

_________________
[Профиль]  [ЛС] 

abc7

Гроза морей

464

Пост 27-Апр-2012 05:26 (спустя 1 месяц 22 дня)

[Q] 

[Профиль]  [ЛС] 

mrdim-CHEHOV

Флибустьер

Пост 08-Янв-2013 18:02 (спустя 8 месяцев 11 дней)

[Q] 


восстановил...
P.S.
можно списочек ссылок на старые комедии?постепенно восстанавливаю золотую коллекцию...многих фильмов и названия то забыл ah

_________________
Все будет не так, как мы решим. Все будет тогда, когда мы решимся.
[Профиль]  [ЛС] 

Trianon777

Морской Волк

Пост 25-Июл-2014 14:57 (спустя 1 год 6 месяцев)

[Q] 

СПАСИБО! Отдельно - за золото!
Прекрасный фильм о простых людях... Актерский ансамбль - великолепен. Можно пересматривать сколько угодно раз, и всё как в первый :)
[Профиль]  [ЛС] 

alex denver71

Флибустьер

Пост 08-Янв-2015 19:13 (спустя 5 месяцев 14 дней)

[Q] 

Автору респект!!! Очень нравится,очень хороший фильм!!!
[Профиль]  [ЛС] 

СерКат

Корсар

Пост 09-Май-2015 01:03 (спустя 4 месяца)

[Q] 

кто не видел?рекомендую
[Профиль]  [ЛС] 
Показать сообщения:    
Ответить на тему

Текущее время: Сегодня 05:10

Часовой пояс: GMT + 4



Вы не можете начинать темы
Вы не можете отвечать на сообщения
Вы не можете редактировать свои сообщения
Вы не можете удалять свои сообщения
Вы не можете голосовать в опросах
Вы не можете прикреплять файлы к сообщениям
Вы не можете скачивать файлы

▼ Вниз