ML
     
  Уважаемый Гость!
Вы можете поддержать проект и зарегистрироваться у наших партнеров - онлайн-стратегия MyLands. При регистрации в игре Вы получите код, который сможете активировать после регистрации на pirat.ca и получить 1000 дублонов.

Ваш код:
c89b4b6523eaac3173e9a9c062ac1a19db575961
 
     

Сталкер (Андрей Тарковский) [1979 г., Драма / Фантастика, DVDRip]

Ответить на тему
 
Автор
Сообщение

Пост 24-Фев-2012 15:09

[Q] 

megamastor

Сталкер
Год выпуска: 1979
Жанр: Драма / Фантастика
Продолжительность: 2:34:56
Режиссер: Андрей Тарковский
В ролях: Алиса Фрейндлих, Александр Кайдановский, Анатолий Солоницын, Николай Гринько
Описание: В этой ленте, снятой по мотивам повести братьев Стругацких «Пикник на обочине», действие происходит в некой запретной Зоне, где, по слухам, существует комната, где исполняются самые заветные желания.
К этой комнате отправляются модный Писатель и авторитетный Профессор — каждый по своим причинам, о которых предпочитают не говорить. А ведет их туда Сталкер — проводник по Зоне — то ли юродивый, то ли апостол новой веры…
Источник/Качество: DVDRip
Формат: AVI
Видео кодек: XviD
Видео: 704x528 (1.2), 25 fps, XviD 1.1.2 2599 kbps avg, 0.28 bit/pixel
Аудио: 48 kHz, MPEG Layer 3, 2 ch, 448.00 kbps
Общее
Полное имя : D:\Piratca\Repair\Stalker(1979)\Сталкер[CD1][pirat.ca].avi
Формат : AVI
Формат/Информация : Audio Video Interleave
Размер файла : 1,34 Гбайт
Продолжительность : 1 ч. 2 м.
Общий поток : 3057 Кбит/сек
Программа кодирования : VirtualDubMod 1.5.4.1 (build 2178/release)
Библиотека кодирования : VirtualDub build 24469/release
Видео
Идентификатор : 0
Формат : MPEG-4 Visual
Профиль формата : Advanced [email protected]
Параметр BVOP формата : 1
Параметр QPel формата : Нет
Параметр GMC формата : Без точки перехода
Параметр матрицы формата : Выборочная
Идентификатор кодека : XVID
Идентификатор кодека/Подсказка : XviD
Продолжительность : 1 ч. 2 м.
Битрейт : 2599 Кбит/сек
Ширина : 704 пикселя
Высота : 528 пикселей
Соотношение сторон : 4:3
Частота кадров : 25,000 кадров/сек
Цветовое пространство : YUV
Субдискретизация насыщенности : 4:2:0
Битовая глубина : 8 бит
Тип развёртки : Прогрессивная
Метод сжатия : С потерями
Бит/(Пиксели*Кадры) : 0.280
Размер потока : 1,14 Гбайт (85%)
Библиотека кодирования : XviD 1.1.2 (UTC 2006-11-01)
Аудио
Идентификатор : 1
Формат : AC-3
Формат/Информация : Audio Coding 3
Расширение режима : CM (complete main)
Идентификатор кодека : 2000
Продолжительность : 1 ч. 2 м.
Вид битрейта : Постоянный
Битрейт : 448 Кбит/сек
Каналы : 6 каналов
Расположение каналов : Front: L C R, Side: L R, LFE
Частота : 48,0 КГц
Битовая глубина : 16 бит
Метод сжатия : С потерями
Задержка видео : 593 мс.
Размер потока : 201 Мбайт (15%)
Выравнивание : Разделение по промежуткам
Продолжительность промежутка : 40 мс. (1,00 видеокадр)
Время предзагрузки промежутка : 500 мс.
----------------------------------------------------
Общее
Полное имя : D:\Piratca\Repair\Stalker(1979)\Сталкер[CD2][pirat.ca].avi
Формат : AVI
Формат/Информация : Audio Video Interleave
Размер файла : 1,40 Гбайт
Продолжительность : 1 ч. 32 м.
Общий поток : 2170 Кбит/сек
Программа кодирования : VirtualDubMod 1.5.4.1 (build 2178/release)
Библиотека кодирования : VirtualDub build 24469/release
Видео
Идентификатор : 0
Формат : MPEG-4 Visual
Профиль формата : Advanced [email protected]
Параметр BVOP формата : 1
Параметр QPel формата : Нет
Параметр GMC формата : Без точки перехода
Параметр матрицы формата : Выборочная
Идентификатор кодека : XVID
Идентификатор кодека/Подсказка : XviD
Продолжительность : 1 ч. 32 м.
Битрейт : 1712 Кбит/сек
Ширина : 704 пикселя
Высота : 528 пикселей
Соотношение сторон : 4:3
Частота кадров : 25,000 кадров/сек
Цветовое пространство : YUV
Субдискретизация насыщенности : 4:2:0
Битовая глубина : 8 бит
Тип развёртки : Прогрессивная
Метод сжатия : С потерями
Бит/(Пиксели*Кадры) : 0.184
Размер потока : 1,10 Гбайт (79%)
Библиотека кодирования : XviD 1.1.2 (UTC 2006-11-01)
Аудио
Идентификатор : 1
Формат : AC-3
Формат/Информация : Audio Coding 3
Расширение режима : CM (complete main)
Идентификатор кодека : 2000
Продолжительность : 1 ч. 32 м.
Вид битрейта : Постоянный
Битрейт : 448 Кбит/сек
Каналы : 6 каналов
Расположение каналов : Front: L C R, Side: L R, LFE
Частота : 48,0 КГц
Битовая глубина : 16 бит
Метод сжатия : С потерями
Задержка видео : 17 мс.
Размер потока : 295 Мбайт (21%)
Выравнивание : Разделение по промежуткам
Продолжительность промежутка : 40 мс. (1,00 видеокадр)
Время предзагрузки промежутка : 500 мс.
Download / Скачать

Хотите скачать бесплатно? Зарегистрируйтесь на сайте (ссылка на регистрацию). Pirat.ca - самый быстрый торрент трекер в рунете!

Как скачивать  ·   Что такое торрент  ·   Рейтинг и ограничения

Пост 24-Фев-2012 15:16 (спустя 7 минут)

Топик был перенесен из форума Наше Кино в форум Советское кино

Skinwalker
 

Zheand1

Морской Волк

Пост 24-Фев-2012 16:26 (спустя 1 час 16 минут)

[Q] 

[Профиль]  [ЛС] 

alenfr

Пост 24-Фев-2012 16:44 (спустя 17 минут)

[Q] 


_________________
Кто может — делает, кто не может — учит.
______________________________________
Держи порох сухим, а шпагу острой.
[Профиль]  [ЛС] 

king177

Корсар

Пост 24-Фев-2012 16:58 (спустя 13 минут)

[Q] 

Давно смотрел... Но посмотрю снова...
[Профиль]  [ЛС] 

Amon

Корсар

Пост 24-Фев-2012 21:56 (спустя 4 часа)

[Q] 

[Профиль]  [ЛС] 

xdgx

Флибустьер

Пост 25-Фев-2012 12:51 (спустя 14 часов)

[Q] 

[Профиль]  [ЛС] 

VaNo192

Корсар

Пост 27-Фев-2012 06:36 (спустя 1 день 17 часов)

[Q] 

Тарковский своеобразный режиссёр, лично мне повесть нравится намного больше, чем экранизация, да в общем и сценарий писался отдельно, в повести всё совсем по другому...
[Профиль]  [ЛС] 

wirtual

Гроза морей

Пост 29-Фев-2012 22:13 (спустя 2 дня 15 часов)

[Q] 

классика, истоки...

_________________
не будешь делиться - останешься одноклеточным
[Профиль]  [ЛС] 

Gekon86ru

Морской Волк

285

Пост 21-Мар-2012 13:28 (спустя 20 дней)

[Q] 

Фильм не для разового просмотра. Голливуд таких не снимает. Зона - это проекция нашей жизни

_________________
Самый лучший игровой сервер это ЗЕМЛЯ. 6 млрд игроков, лагов и читеров нет, админ терпеливый.. но уж если забанит :)
[Профиль]  [ЛС] 

yury100

Шкипер

Пост 14-Авг-2012 14:08 (спустя 4 месяца 24 дня)

[Q] 

Это фильм-размышление. Не под пиво.
[Профиль]  [ЛС] 

Bulgarin1

Шкипер

Пост 11-Окт-2012 13:15 (спустя 1 месяц 27 дней)

[Q] 

[Профиль]  [ЛС] 

LORD OR

Корсар

Пост 12-Ноя-2012 21:53 (спустя 1 месяц 1 день)

[Q] 

[Профиль]  [ЛС] 

Bile

4188

Пост 10-Янв-2013 17:58 (спустя 1 месяц 27 дней)

[Q] 

Отличный фильм, пересматривал несколько раз.
[Профиль]  [ЛС] 

xdgx

Флибустьер

Пост 18-Янв-2013 20:58 (спустя 8 дней)

[Q] 

[Профиль]  [ЛС] 

Poruchik76

Штурман

276

Пост 20-Янв-2013 02:43 (спустя 1 день 5 часов)

[Q] 

[Профиль]  [ЛС] 

ValeraTerechenko

Корсар

142

Пост 21-Янв-2013 06:35 (спустя 1 день 3 часа)

[Q] 

Красивый фильм.
[Профиль]  [ЛС] 

UncleFather

Легенда

Пост 24-Мар-2013 21:03 (спустя 2 месяца 3 дня)

[Q] 


_________________
Одни боялись Пью, другие - Билли Бонса, а меня... меня боялся сам Флинт
[Профиль]  [ЛС] 

litti

Флибустьер

Пост 14-Май-2013 17:47 (спустя 1 месяц 20 дней)

[Q] 


_________________
Маньяком быть ты не обязан,
но сексуальным должен быть...
[Профиль]  [ЛС] 

NektoWaso

Флибустьер

Пост 31-Окт-2013 09:48 (спустя 5 месяцев 16 дней)

[Q] 

это не экранизация, это - самостоятельное произведение искусства кино! возможно, лучший фильм Тарковского, по моему мнению... классика кино!
[Профиль]  [ЛС] 

ZhekasCat

Морской Волк

35

Пост 03-Дек-2015 14:16 (спустя 2 года 1 месяц)

[Q] 

Отличный фильм.Для своего времени был не обычным,как для советского кино.
[Профиль]  [ЛС] 

xzxscorpxzx

Флибустьер

Пост 09-Фев-2016 03:36 (спустя 2 месяца 5 дней)

[Q] 

не смотрел)качаю
[Профиль]  [ЛС] 
Показать сообщения:    
Ответить на тему

Текущее время: Сегодня 22:33

Часовой пояс: GMT + 4



Вы не можете начинать темы
Вы не можете отвечать на сообщения
Вы не можете редактировать свои сообщения
Вы не можете удалять свои сообщения
Вы не можете голосовать в опросах
Вы не можете прикреплять файлы к сообщениям
Вы не можете скачивать файлы

▼ Вниз