ML
     
  Уважаемый Гость!
Вы можете поддержать проект и зарегистрироваться у наших партнеров - онлайн-стратегия MyLands. При регистрации в игре Вы получите код, который сможете активировать после регистрации на pirat.ca и получить 1000 дублонов.

Ваш код:
8b752b428cf60a012c159dcae592cd1392170115
 
     

По семейным обстоятельствам (2 серии из 2) (Алексей Коренев) [1977 г., Лирическая комедия, DVDRip]

Ответить на тему
 
Автор
Сообщение

Пост 25-Фев-2012 08:33

[Q] 

megamastor

По семейным обстоятельствам (2 серии из 2)
Год выпуска: 1977
Жанр: Лирическая комедия
Продолжительность: 02:08:52
Режиссер: Алексей Коренев
В ролях: Галина Польских, Ролан Быков, Евгений Евстигнеев, Марина Дюжева, Евгений Стеблов, Анатолий Папанов, Евгения Ханаева, Бухути Закариадзе, Людмила Зайцева, Нина Дорошина, Юрий Кузьменков, Лев Дуров, Николай Парфенов, Владимир Басов
Описание: Режиссер поставил замечательную мелодраму с элементами комедии, рассказывающую о жизни, любви, семье, семейных проблемах, взаимоотношениях между родителями и детьми, тещами, свекровями. Галина Польских в роли привлекательной, молодой еще женщины, чья дочь вышла замуж за героя Стеблова. Дочь и ее муж еще так молоды, и она не может принять их легкого отношения к жизни, травит зятя, пока сама не становится невесткой, выйдя замуж за художника, которого сыграл Евгений Евстигнеев, скромного, тихого человека, живущего со своей очень требовательной мамой. Только тогда она резко меняется и дома, и на работе. Добрая, милая картина, горячо любимая нашим зрителем. Многие эпизоды - например, с логопедом Быковым, не произносящим половину букв, вошли в пословицы и дежурные шутки, благодаря прекрасным диалогам сценариста Валентина Азерникова.
Источник/Качество: DVDRip
Формат: AVI
Видео кодек: XviD
Аудио кодек: MP3
Видео: 512x384 (1.3),1417 Кбит/сек, 25 fps
Аудио: 48 kHz ,MPEG Layer 3, 2 ch, 128.00 kbp
Общее
Полное имя : D:\Piratca\Repair\Po_Semeinim_obstoytelstwam[pirat.ca]\По семейным обстоятельствам(cd-1).avi
Формат : AVI
Формат/Информация : Audio Video Interleave
Размер файла : 700 Мбайт
Продолжительность : 1 ч. 3 м.
Общий поток : 1552 Кбит/сек
Часть/Положение : 1
Часть/Всего : 2
Дата мастеринга : 05-10-2005
Программа кодирования : VirtualDubMod 1.5.4.1 (build 2178/release) VirtualDubMod build 2178/release
Видео
Идентификатор : 0
Формат : MPEG-4 Visual
Профиль формата : Advanced [email protected]
Параметр BVOP формата : 1
Параметр QPel формата : Нет
Параметр GMC формата : Без точки перехода
Параметр матрицы формата : Default (H.263)
Режим смешивания : Сжатый битовый поток
Идентификатор кодека : XVID
Идентификатор кодека/Подсказка : XviD
Продолжительность : 1 ч. 3 м.
Битрейт : 1417 Кбит/сек
Ширина : 512 пикселей
Высота : 384 пикселя
Соотношение сторон : 4:3
Частота кадров : 25,000 кадров/сек
Цветовое пространство : YUV
Субдискретизация насыщенности : 4:2:0
Битовая глубина : 8 бит
Тип развёртки : Прогрессивная
Метод сжатия : С потерями
Бит/(Пиксели*Кадры) : 0.288
Размер потока : 639 Мбайт (91%)
Библиотека кодирования : XviD 0039 build=2005.09.25 (UTC 2005-09-25)
Аудио
Идентификатор : 1
Формат : MPEG Audio
Версия формата : Version 1
Профиль формата : Layer 3
Режим : Joint stereo
Расширение режима : MS Stereo
Идентификатор кодека : 55
Идентификатор кодека/Подсказка : MP3
Продолжительность : 1 ч. 3 м.
Вид битрейта : Постоянный
Битрейт : 128 Кбит/сек
Каналы : 2 канала
Частота : 48,0 КГц
Метод сжатия : С потерями
Задержка видео : 360 мс.
Размер потока : 57,7 Мбайт (8%)
Выравнивание : Соединение по промежуткам
Продолжительность промежутка : 80 мс. (2,00 видеокадра)
Время предзагрузки промежутка : 504 мс.
Библиотека кодирования : LAME3.96r
Настройки программы : -m j -V 4 -q 2 -lowpass 17.5 -b 128
Язык : un / Russian
---------------------------------------
Общее
Полное имя : D:\Piratca\Repair\Po_Semeinim_obstoytelstwam[pirat.ca]\По семейным обстоятельствам(cd-2).avi
Формат : AVI
Формат/Информация : Audio Video Interleave
Размер файла : 700 Мбайт
Продолжительность : 1 ч. 5 м.
Общий поток : 1487 Кбит/сек
Часть/Положение : 2
Часть/Всего : 2
Дата мастеринга : 05-10-2005
Программа кодирования : VirtualDubMod 1.5.4.1 (build 2178/release) VirtualDubMod build 2178/release
Видео
Идентификатор : 0
Формат : MPEG-4 Visual
Профиль формата : Advanced [email protected]
Параметр BVOP формата : 1
Параметр QPel формата : Нет
Параметр GMC формата : Без точки перехода
Параметр матрицы формата : Default (H.263)
Режим смешивания : Сжатый битовый поток
Идентификатор кодека : XVID
Идентификатор кодека/Подсказка : XviD
Продолжительность : 1 ч. 5 м.
Битрейт : 1352 Кбит/сек
Ширина : 512 пикселей
Высота : 384 пикселя
Соотношение сторон : 4:3
Частота кадров : 25,000 кадров/сек
Цветовое пространство : YUV
Субдискретизация насыщенности : 4:2:0
Битовая глубина : 8 бит
Тип развёртки : Прогрессивная
Метод сжатия : С потерями
Бит/(Пиксели*Кадры) : 0.275
Размер потока : 636 Мбайт (91%)
Библиотека кодирования : XviD 0039 build=2005.09.25 (UTC 2005-09-25)
Аудио
Идентификатор : 1
Формат : MPEG Audio
Версия формата : Version 1
Профиль формата : Layer 3
Режим : Joint stereo
Расширение режима : MS Stereo
Идентификатор кодека : 55
Идентификатор кодека/Подсказка : MP3
Продолжительность : 1 ч. 5 м.
Вид битрейта : Постоянный
Битрейт : 128 Кбит/сек
Каналы : 2 канала
Частота : 48,0 КГц
Метод сжатия : С потерями
Размер потока : 60,3 Мбайт (9%)
Выравнивание : Соединение по промежуткам
Продолжительность промежутка : 80 мс. (2,00 видеокадра)
Время предзагрузки промежутка : 504 мс.
Библиотека кодирования : LAME3.96r
Настройки программы : -m j -V 4 -q 2 -lowpass 17.5 -b 128
Язык : un / Russian
Download / Скачать

Хотите скачать бесплатно? Зарегистрируйтесь на сайте (ссылка на регистрацию). Pirat.ca - самый быстрый торрент трекер в рунете!

Как скачивать  ·   Что такое торрент  ·   Рейтинг и ограничения

Luzhok

Легенда

Пост 25-Фев-2012 14:20 (спустя 5 часов)

[Q] 

присоединяюсь
megamastor
спасибо
[Профиль]  [ЛС] 

Пост 26-Фев-2012 14:07 (спустя 23 часа)

Топик был перенесен из форума Наше Кино в форум Советское кино

Skinwalker
 

mrdim-CHEHOV

Флибустьер

Пост 02-Мар-2012 13:55 (спустя 5 дней)

[Q] 

спасибо!!! aa даже подзабыл про такой фильм...увидел картинку и сразу вспомнил..."скажи рыба!селедка..." bj ay

_________________
Все будет не так, как мы решим. Все будет тогда, когда мы решимся.
[Профиль]  [ЛС] 

abc7

Гроза морей

464

Пост 07-Мар-2012 06:29 (спустя 4 дня)

[Q] 

[Профиль]  [ЛС] 

VaNo192

Корсар

Пост 11-Мар-2012 13:15 (спустя 4 дня)

[Q] 

[Профиль]  [ЛС] 

mrdim-CHEHOV

Флибустьер

Пост 08-Янв-2013 18:07 (спустя 9 месяцев 28 дней)

[Q] 

восстановлена... aa

_________________
Все будет не так, как мы решим. Все будет тогда, когда мы решимся.
[Профиль]  [ЛС] 
Показать сообщения:    
Ответить на тему

Текущее время: Сегодня 06:21

Часовой пояс: GMT + 4



Вы не можете начинать темы
Вы не можете отвечать на сообщения
Вы не можете редактировать свои сообщения
Вы не можете удалять свои сообщения
Вы не можете голосовать в опросах
Вы не можете прикреплять файлы к сообщениям
Вы не можете скачивать файлы

▼ Вниз