ML
     
  Уважаемый Гость!
Вы можете поддержать проект и зарегистрироваться у наших партнеров - онлайн-стратегия MyLands. При регистрации в игре Вы получите код, который сможете активировать после регистрации на pirat.ca и получить 1000 дублонов.

Ваш код:
0ea1bf889af42fca5f67d0a391efb3400850ad7c
 
     

АССА (Сергей Соловьев) [1987 г., Драма, DVDRip]

Ответить на тему
 
Автор
Сообщение

Пост 05-Мар-2012 18:41

[Q] 

megamastor

АССА
Год выпуска: 1987
Жанр: Драма
Продолжительность: 01:13:00 + 01:11:24
Режиссер: Сергей Соловьев
В ролях: • Татьяна Друбич — Алика
• Станислав Говорухин — Крымов
• Александр Баширов — Майор Шурик
• Сергей «Африка» Бугаев — «Бананан»
• Виктор Бешляга — Альберт Петрович
• Анита Жуковская — Зоя
• Андрей Халявин — «Борода», сотрудник КГБ
• Ирена Куксенайте — спутница сотрудника КГБ
• Александр Домогаров — Александр I
• Виктор Цой — Виктор Цой
• Илья Иванов — «Шар»
• Александр Иншаков — ударивший «Майора» в ресторане
• Дмитрий Шумилов — негр Витя
• Дмитрий Долинин — Павел I
• Светлана Тормахова
• Анатолий Сливников — «Амбал»
• Кирилл Козаков — Платон Зубов
• Сергей Рыженко — скрипач в группе
• Александр Мыльников — следователь
• Георгий «Густав» Гурьянов — ударник в группе
Описание: Зимняя Ялта. Неповторимая экзотика ее стала частью картины. Сам сюжет ее напоминает пальму в снегу: под его немного сонной интонацией вспышка темперамента - вялая морская прогулка на катере, и вдруг шантаж, самоубийство, - подобна сорвавшемуся с длинного гладкого листа пласту снега... и опять тихо падает снег на этот лист, опять накапливаются события, и опять срывается пласт снега...
Доп. информация: "Я, как и все, тоже наслушался разговоров о примитивности и убогости сознания молодого поколения. Но дело в том, что эти разговоры велись всегда. В 60-е, когда я сам был молодым, тоже об этом говорили. Дебилов и уродов хватает с излишком во все времена! И только кажется, что особенно много их именно в молодом поколении. Мы сами смоделировали такую нахальную и бессмысленную дурость, внушив молодёжи, чтобы она внутренне ощущала себя некой национальной элитой. И выдумка эта вовсе не сугубо российская. Она вполне общечеловеческая. Хотя существуют разумные народы, где приоритеты расставлены наоборот. В цене - опыт жизни и зрелый разум. Но на самом деле ни то ни другое не панацея. Никакой возраст не может быть индульгенцией от идиотизма. Совершенно не важно, сколько тебе лет - 15 или 105. Я как-то уже вспоминал, как много лет назад на «Мосфильме» состоялась одна смешная конференция, на которой представители молодого кинематографического поколения и я, конечно, стучали кулаками по столу с криками: «Если нам сейчас же не организуют объединение «Дебют», мы до самых верхов дойдём! Мы всем всё покажем!» После того как очередной выступающий сошёл с трибуны, режиссёр Ефим Дзиган, которому на тот момент было сильно за 70, в наступившей вдруг тишине произнёс: «Если у нас организуют объединение «Дебют», то я потребую организации объединения «Финал»…"
Источник/Качество: DVDRip
Формат: AVI
Видео кодек: DivX
Аудио кодек: AC3
Видео: 720x448 (1.61:1), 25 fps, DivX Codec 5.x or 6.x ~1709 kbps avg
Аудио: 48 kHz, AC3 Dolby Digital, 3/2 (L,C,R,l,r) + LFE ch, ~448.00 kbps avg
Общее
Полное имя : D:\Piratca\Repair\A_S_S_A_DVDRip\01_A_S_S_A_DVDRip.avi
Формат : AVI
Формат/Информация : Audio Video Interleave
Размер файла : 1,11 Гбайт
Продолжительность : 1 ч. 13 м.
Общий поток : 2167 Кбит/сек
Программа кодирования : VirtualDubModRus 1.5.10.2 (build 2542/release)
Библиотека кодирования : VirtualDubMod build 2542/release
Видео
Идентификатор : 0
Формат : MPEG-4 Visual
Параметр BVOP формата : 1
Параметр QPel формата : Нет
Параметр GMC формата : Без точки перехода
Параметр матрицы формата : Default (H.263)
Режим смешивания : Сжатый битовый поток
Идентификатор кодека : DX50
Идентификатор кодека/Подсказка : DivX 5
Продолжительность : 1 ч. 13 м.
Битрейт : 1710 Кбит/сек
Ширина : 720 пикселей
Высота : 448 пикселей
Соотношение сторон : 1,607
Частота кадров : 25,000 кадров/сек
Цветовое пространство : YUV
Субдискретизация насыщенности : 4:2:0
Битовая глубина : 8 бит
Тип развёртки : Прогрессивная
Метод сжатия : С потерями
Бит/(Пиксели*Кадры) : 0.212
Размер потока : 893 Мбайт (79%)
Библиотека кодирования : DivX 6.8.3-6.8.4 (UTC 2008-06-07)
Аудио
Идентификатор : 1
Формат : AC-3
Формат/Информация : Audio Coding 3
Расширение режима : CM (complete main)
Идентификатор кодека : 2000
Продолжительность : 1 ч. 13 м.
Вид битрейта : Постоянный
Битрейт : 448 Кбит/сек
Каналы : 6 каналов
Расположение каналов : Front: L C R, Side: L R, LFE
Частота : 48,0 КГц
Битовая глубина : 16 бит
Метод сжатия : С потерями
Размер потока : 234 Мбайт (21%)
Выравнивание : Соединение по промежуткам
Продолжительность промежутка : 40 мс. (1,00 видеокадр)
Время предзагрузки промежутка : 512 мс.
-----------------------
Общее
Полное имя : D:\Piratca\Repair\A_S_S_A_DVDRip\02_A_S_S_A_DVDRip.avi
Формат : AVI
Формат/Информация : Audio Video Interleave
Размер файла : 1,08 Гбайт
Продолжительность : 1 ч. 11 м.
Общий поток : 2165 Кбит/сек
Программа кодирования : VirtualDubModRus 1.5.10.2 (build 2542/release)
Библиотека кодирования : VirtualDubMod build 2542/release
Видео
Идентификатор : 0
Формат : MPEG-4 Visual
Параметр BVOP формата : 1
Параметр QPel формата : Нет
Параметр GMC формата : Без точки перехода
Параметр матрицы формата : Default (H.263)
Режим смешивания : Сжатый битовый поток
Идентификатор кодека : DX50
Идентификатор кодека/Подсказка : DivX 5
Продолжительность : 1 ч. 11 м.
Битрейт : 1708 Кбит/сек
Ширина : 720 пикселей
Высота : 448 пикселей
Соотношение сторон : 1,607
Частота кадров : 25,000 кадров/сек
Цветовое пространство : YUV
Субдискретизация насыщенности : 4:2:0
Битовая глубина : 8 бит
Тип развёртки : Прогрессивная
Метод сжатия : С потерями
Бит/(Пиксели*Кадры) : 0.212
Размер потока : 872 Мбайт (79%)
Библиотека кодирования : DivX 6.8.3-6.8.4 (UTC 2008-06-07)
Аудио
Идентификатор : 1
Формат : AC-3
Формат/Информация : Audio Coding 3
Расширение режима : CM (complete main)
Идентификатор кодека : 2000
Продолжительность : 1 ч. 11 м.
Вид битрейта : Постоянный
Битрейт : 448 Кбит/сек
Каналы : 6 каналов
Расположение каналов : Front: L C R, Side: L R, LFE
Частота : 48,0 КГц
Битовая глубина : 16 бит
Метод сжатия : С потерями
Размер потока : 229 Мбайт (21%)
Выравнивание : Соединение по промежуткам
Продолжительность промежутка : 40 мс. (1,00 видеокадр)
Время предзагрузки промежутка : 512 мс.
Download / Скачать

Хотите скачать бесплатно? Зарегистрируйтесь на сайте (ссылка на регистрацию). Pirat.ca - самый быстрый торрент трекер в рунете!

Как скачивать  ·   Что такое торрент  ·   Рейтинг и ограничения

goxakrauter

4540

Пост 05-Мар-2012 19:00 (спустя 18 минут)

[Q] 

[Профиль]  [ЛС] 

Пост 05-Мар-2012 20:31 (спустя 1 час 31 минута)

Топик был перенесен из форума Наше Кино в форум Советское кино

Кошка
 

ZlobiN

Корсар

Пост 06-Мар-2012 07:12 (спустя 12 часов)

[Q] 

недокроп слева..
[Профиль]  [ЛС] 

megamastor ®

2827

Пост 10-Мар-2012 05:07 (спустя 3 дня)

[Q] 

недокроп слева..
А как этот недокроп увидать то?... В дабе нет полос ни слева ни справа...
[Профиль]  [ЛС] 

megamastor ®

2827

Пост 10-Мар-2012 05:15 (спустя 7 минут)

[Q] 

Если на исходнике, то тогда вообще лишнего надо срезать
[Профиль]  [ЛС] 

abc7

Гроза морей

464

Пост 12-Мар-2012 23:43 (спустя 2 дня 18 часов)

[Q] 

[Профиль]  [ЛС] 

alexman

Корсар

Пост 05-Июл-2014 09:51 (спустя 2 года 3 месяца)

[Q] 

Ностальгия. Посмотрел с удовольствием. Спасибо. А на недокроп-забил!
[Профиль]  [ЛС] 
Показать сообщения:    
Ответить на тему

Текущее время: Сегодня 00:37

Часовой пояс: GMT + 4



Вы не можете начинать темы
Вы не можете отвечать на сообщения
Вы не можете редактировать свои сообщения
Вы не можете удалять свои сообщения
Вы не можете голосовать в опросах
Вы не можете прикреплять файлы к сообщениям
Вы не можете скачивать файлы

▼ Вниз