ML
     
  Уважаемый Гость!
Вы можете поддержать проект и зарегистрироваться у наших партнеров - онлайн-стратегия MyLands. При регистрации в игре Вы получите код, который сможете активировать после регистрации на pirat.ca и получить 1000 дублонов.

Ваш код:
cc3be08b7507661c03e0a2f582d0da3a659ea55a
 
     

Бакенбарды (Юрий Мамин) [1990 г., Сатирическая комедия, DVDRip-AVC]

Ответить на тему
 
Автор
Сообщение

Пост 13-Мар-2012 11:57

[Q] 

megamastor

Бакенбарды
Год выпуска: 1990
Жанр: Сатирическая комедия
Продолжительность: 01:36:44
Режиссер: Юрий Мамин
В ролях: Виктор Сухоруков, Александр Медведев, Артур Ваха, Владлен Бирюков, Александр Лыков, О. Алабышева, О. Самарина, Анатолий Журавлев, Юрий Мамин, Виктор Михайлов, Юрий Мамин, Елена Руфанова
Описание: Перестройка в разгаре. В уездном городе Заборске нет житья от распоясавшейся молодежной группировки "Капелла". Другие неформалы - "Бивни" - "качают" мускулы и бьют "Капеллу". Милиция ничего не может с ними поделать.
И тут в Заборск приезжают из Ленинграда два человека с бакенбардами, в макинтошах и котелках. Они цитируют Пушкина, прекрасно умеют постоять за себя при помощи трости и твердо знают, что нужно делать, чтобы спасти Россию...
Источник/Качество: DVDRip-AVC
Формат: MKV
Видео кодек: AVC
Аудио кодек: AC3
Видео: AVC, 720x560 (773x560), DAR 1.380, 25.000 fps, 1900 Kbps
Аудио: Русский, AC3, 48 kHz, 192 Kbps, 2 channels
Общее
Уникальный идентификатор : 192373399263500673678803966512266299620 (0x90B9C4DE229AA674AD49B8A0A86948E4)
Полное имя : D:\Piratca\Repair\Bakenbardy.1990.dvdrip.avc.25fps.ac3.mkv
Формат : Matroska
Версия формата : Version 2
Размер файла : 1,41 Гбайт
Продолжительность : 1 ч. 36 м.
Общий поток : 2094 Кбит/сек
Дата кодирования : UTC 2011-05-22 06:55:07
Программа кодирования : mkvmerge v4.7.0 ('Just Like You Imagined') сборка от Apr 21 2011 01:13:14
Библиотека кодирования : libebml v1.2.0 + libmatroska v1.1.0
Видео
Идентификатор : 1
Формат : AVC
Формат/Информация : Advanced Video Codec
Профиль формата : [email protected]
Параметр CABAC формата : Да
Параметр ReFrames формата : 4 кадра
Идентификатор кодека : V_MPEG4/ISO/AVC
Продолжительность : 1 ч. 36 м.
Битрейт : 1900 Кбит/сек
Ширина : 720 пикселей
Высота : 560 пикселей
Соотношение сторон : 1,380
Соотношение сторон в оригинале : 1,381
Частота кадров : 25,000 кадров/сек
Цветовое пространство : YUV
Субдискретизация насыщенности : 4:2:0
Битовая глубина : 8 бит
Тип развёртки : Прогрессивная
Бит/(Пиксели*Кадры) : 0.188
Размер потока : 1,26 Гбайт (89%)
Библиотека кодирования : x264 core 115 r1947 b5a8ad7
Настройки программы : cabac=1 / ref=3 / deblock=1:-1:-1 / analyse=0x3:0x113 / me=hex / subme=7 / psy=1 / psy_rd=1.00:0.15 / mixed_ref=1 / me_range=16 /
chroma_me=1 / trellis=1 / 8x8dct=1 / cqm=0 / deadzone=21,11 / fast_pskip=1 / chroma_qp_offset=-3 / threads=6 / sliced_threads=0 / nr=0 / decimate=1 / interlaced=0 /
bluray_compat=0 / constrained_intra=0 / bframes=3 / b_pyramid=2 / b_adapt=1 / b_bias=0 / direct=1 / weightb=1 / open_gop=0 / weightp=2 / keyint=250 / keyint_min=25
/ scenecut=40 / intra_refresh=0 / rc_lookahead=40 / rc=2pass / mbtree=1 / bitrate=1900 / ratetol=1.0 / qcomp=0.60 / qpmin=0 / qpmax=69 / qpstep=4 / cplxblur=20.0 /
qblur=0.5 / vbv_maxrate=50000 / vbv_bufsize=50000 / nal_hrd=none / ip_ratio=1.40 / aq=1:1.00
Язык : English
Default : Да
Forced : Нет
Аудио
Идентификатор : 2
Формат : AC-3
Формат/Информация : Audio Coding 3
Расширение режима : CM (complete main)
Идентификатор кодека : A_AC3
Продолжительность : 1 ч. 36 м.
Вид битрейта : Постоянный
Битрейт : 192 Кбит/сек
Каналы : 2 канала
Расположение каналов : Front: L R
Частота : 48,0 КГц
Битовая глубина : 16 бит
Метод сжатия : С потерями
Размер потока : 133 Мбайт (9%)
Default : Да
Forced : Нет
Download / Скачать

Хотите скачать бесплатно? Зарегистрируйтесь на сайте (ссылка на регистрацию). Pirat.ca - самый быстрый торрент трекер в рунете!

Как скачивать  ·   Что такое торрент  ·   Рейтинг и ограничения

Пост 13-Мар-2012 12:33 (спустя 36 минут)

Топик был перенесен из форума Наше Кино в форум Советское кино

ara1205
 

tonkiti

Штурман

Пост 13-Мар-2012 15:06 (спустя 3 часа)

[Q] 

отличный фильм.
четкая сатира.
спасибо за релиз, megamastor,
[Профиль]  [ЛС] 

megamastor ®

2827

Пост 13-Мар-2012 19:26 (спустя 4 часа)

[Q] 

tonkiti, Всегда пожалуйста bs
[Профиль]  [ЛС] 
Показать сообщения:    
Ответить на тему

Текущее время: Сегодня 05:05

Часовой пояс: GMT + 4



Вы не можете начинать темы
Вы не можете отвечать на сообщения
Вы не можете редактировать свои сообщения
Вы не можете удалять свои сообщения
Вы не можете голосовать в опросах
Вы не можете прикреплять файлы к сообщениям
Вы не можете скачивать файлы

▼ Вниз