ML
     
  Уважаемый Гость!
Вы можете поддержать проект и зарегистрироваться у наших партнеров - онлайн-стратегия MyLands. При регистрации в игре Вы получите код, который сможете активировать после регистрации на pirat.ca и получить 1000 дублонов.

Ваш код:
a6d1ef7ff63e237add5a4c8b21d8aa937c5e9b4b
 
     

Они сражались за Родину (Сергей Бондарчук) [1975 г., Военный, драма, DVDRip]

Ответить на тему
 
Автор
Сообщение

Пост 15-Мар-2012 14:44

[Q] 

Creed72

Они сражались за Родину (1 и 2 фильмы. Полная версия)- Год выпуска: 1975
Жанр: Военный, драма
Продолжительность: 02:30:53
Режиссер: Сергей Бондарчук
В ролях: Василий Шукшин, Вячеслав Тихонов, Сергей Бондарчук, Георгий Бурков, Юрий Никулин, Иван Лапиков,
Николай Губенко, Николай Волков (III), Андрей Ростоцкий, Николай Шутько, Евгений Самойлов, Нонна Мордюкова, Иннокентий Смоктуновский, Ирина Скобцева, Ангелина Степанова, Татьяна Божок, Лидия Федосеева-Шукшина, Даниил Ильченко, Алексей Ванин, Николай Горлов, Геннадий Сафронов, Борис Никифоров, Анатолий Переверзев, Виталий Леонов, Михаил Чигарев, Станислав Бородокин, Леонид Трутнев, Петр Меркурьев, Алексей Коняшин, Владимир Мышкин, Юнус Юсупов, Ермахмад Аралев
Описание: По мотивам одноимённого произведения М.А. Шолохова. Июль 1942 года. На подступах к Сталинграду обескровленные, измотанные советские войска ведут тяжёлые оборонительные бои, неся огромные потери… Они не сломлены неудачами и не потеряли веры в победу. Фильм рассказывает о подвиге рядовых солдат, любви к родной земле, об истинной цене победы…
Источник/Качество: DVDRip
Формат: AVI
Видео кодек: XviD
Аудио кодек: AC3
Видео:720х544 (4:3), 25.000 fps, XviD 1.2.0.dev47, ~ 1682 kbps, 0.172 bit/pixel
Аудио:48kHz, AC3, 2 ch, 192 Кбит/с
Общее
Формат : AVI
Формат/Информация : Audio Video Interleave
Размер файла : 1,02 Гбайт
Продолжительность : 1 ч. 17 м.
Общий поток : 1879 Кбит/сек
Программа кодирования : VirtualDubMod 1.5.4.1 (build 2178/release)
Библиотека кодирования : VirtualDubMod build 2178/release
Видео
Идентификатор : 0
Формат : MPEG-4 Visual
Профиль формата : Advanced [email protected]
Параметр BVOP формата : 1
Параметр QPel формата : Нет
Параметр GMC формата : Без точки перехода
Параметр матрицы формата : Выборочная
Идентификатор кодека : XVID
Идентификатор кодека/Подсказка : XviD
Продолжительность : 1 ч. 17 м.
Битрейт : 1680 Кбит/сек
Ширина : 720 пикселей
Высота : 544 пикселя
Соотношение сторон : 4:3
Частота кадров : 25,000 кадров/сек
Цветовое пространство : YUV
Субдискретизация насыщенности : 4:2:0
Битовая глубина : 8 бит
Тип развёртки : Прогрессивная
Метод сжатия : С потерями
Бит/(Пиксели*Кадры) : 0.172
Размер потока : 937 Мбайт (89%)
Библиотека кодирования : XviD 1.2.0.dev47 (UTC 2006-11-01)
Аудио
Идентификатор : 1
Формат : AC-3
Формат/Информация : Audio Coding 3
Расширение режима : CM (complete main)
Идентификатор кодека : 2000
Продолжительность : 1 ч. 17 м.
Вид битрейта : Постоянный
Битрейт : 192 Кбит/сек
Каналы : 2 канала
Расположение каналов : Front: L R
Частота : 48,0 КГц
Битовая глубина : 16 бит
Метод сжатия : С потерями
Размер потока : 107 Мбайт (10%)
Выравнивание : Разделение по промежуткам
Продолжительность промежутка : 96 мс. (2,40 видеокадра)
Время предзагрузки промежутка : 96 мс.
Язык : Russian
Общее
Формат : AVI
Формат/Информация : Audio Video Interleave
Размер файла : 1,02 Гбайт
Продолжительность : 1 ч. 12 м.
Общий поток : 2019 Кбит/сек
Программа кодирования : VirtualDubMod 1.5.4.1 (build 2178/release)
Библиотека кодирования : VirtualDubMod build 2178/release
Видео
Идентификатор : 0
Формат : MPEG-4 Visual
Профиль формата : Advanced [email protected]
Параметр BVOP формата : 1
Параметр QPel формата : Нет
Параметр GMC формата : Без точки перехода
Параметр матрицы формата : Выборочная
Идентификатор кодека : XVID
Идентификатор кодека/Подсказка : XviD
Продолжительность : 1 ч. 12 м.
Битрейт : 1820 Кбит/сек
Ширина : 720 пикселей
Высота : 544 пикселя
Соотношение сторон : 4:3
Частота кадров : 25,000 кадров/сек
Цветовое пространство : YUV
Субдискретизация насыщенности : 4:2:0
Битовая глубина : 8 бит
Тип развёртки : Прогрессивная
Метод сжатия : С потерями
Бит/(Пиксели*Кадры) : 0.186
Размер потока : 946 Мбайт (90%)
Библиотека кодирования : XviD 1.2.0.dev47 (UTC 2006-11-01)
Аудио
Идентификатор : 1
Формат : AC-3
Формат/Информация : Audio Coding 3
Расширение режима : CM (complete main)
Идентификатор кодека : 2000
Продолжительность : 1 ч. 12 м.
Вид битрейта : Постоянный
Битрейт : 192 Кбит/сек
Каналы : 2 канала
Расположение каналов : Front: L R
Частота : 48,0 КГц
Битовая глубина : 16 бит
Метод сжатия : С потерями
Размер потока : 99,8 Мбайт (10%)
Выравнивание : Разделение по промежуткам
Продолжительность промежутка : 96 мс. (2,40 видеокадра)
Время предзагрузки промежутка : 96 мс.
Язык : Russian
Раздача обновлена администрацией
Download / Скачать

Хотите скачать бесплатно? Зарегистрируйтесь на сайте (ссылка на регистрацию). Pirat.ca - самый быстрый торрент трекер в рунете!

Как скачивать  ·   Что такое торрент  ·   Рейтинг и ограничения



Последний раз редактировалось: Creed72 (2012-06-27 04:19), всего редактировалось 1 раз

bruder

Флибустьер

Пост 15-Мар-2012 19:37 (спустя 4 часа)

[Q] 

Спасибо, брат! Фильм из детства, почему-то его не показывают по телеку, а фильм-то неплохой. И звёздный состав актёров, большинства из которых уже нет с нами... Посмотрю с удовольствием и оставлю в коллекции.

_________________
[Профиль]  [ЛС] 

Creed72 ®

9777

Пост 15-Мар-2012 19:56 (спустя 18 минут)

[Q] 

bruder, Как поется в песне: " На всю оставшуюся жизнь...." Жаль только, Шолохов не дописал.... Но - Победили. bruder, За НИХ az

_________________
Я мзду не беру. Мне за Державу обидно.(с)
[Профиль]  [ЛС] 

Creed72 ®

9777

Пост 15-Мар-2012 20:00 (спустя 4 минуты)

[Q] 

Возможно нарушу Правила раздела , но все же:

_________________
Я мзду не беру. Мне за Державу обидно.(с)
[Профиль]  [ЛС] 

Амангельды

35485

Пост 15-Мар-2012 20:11 (спустя 11 минут)

[Q] 

az aa

_________________

Товарищ, верь, пройдет она,
Так называемая гласность.
И вот тогда госбезопасность
Припомнит ваши имена
Раздачи от Амангельды - ТЫНЦ
[Профиль]  [ЛС] 

Creed72 ®

9777

Пост 15-Мар-2012 20:15 (спустя 3 минуты)

[Q] 

Амангельды, fh az

_________________
Я мзду не беру. Мне за Державу обидно.(с)
[Профиль]  [ЛС] 

bruder

Флибустьер

Пост 15-Мар-2012 20:17 (спустя 1 минута)

[Q] 

Creed72, ролик зацепил! А правила ты не нарушил...

_________________
[Профиль]  [ЛС] 

Creed72 ®

9777

Пост 15-Мар-2012 21:22 (спустя 1 час 4 минуты)

[Q] 

bruder, Да даже если и нарушил. Есть Вечные понятия.

_________________
Я мзду не беру. Мне за Державу обидно.(с)
[Профиль]  [ЛС] 

ara1205

69729

Пост 15-Мар-2012 22:31 (спустя 1 час 9 минут)

[Q] 

Creed72, ролик зацепил! А правила ты не нарушил...
Какой такой ролик? Странный ты, никакого ролика не вижу dk
Creed72 Респект
[Профиль]  [ЛС] 

Пост 15-Мар-2012 22:33 (спустя 2 минуты)

Топик был перенесен из форума Наше Кино в форум Золотая коллекция

ara1205
 

abc7

Гроза морей

464

Пост 18-Мар-2012 18:36 (спустя 2 дня 20 часов)

[Q] 

Все есть, и фильм и ролик!
[Профиль]  [ЛС] 

Alex_cross

42

Пост 06-Апр-2012 23:40 (спустя 19 дней)

[Q] 

Хороший фильм

_________________
За Веру, Царя и Отечество!
[Профиль]  [ЛС] 

Амангельды

35485

Пост 01-Май-2012 00:11 (спустя 24 дня)

[Q] 

Наши всегда победят!!!
Хоть и потом...

_________________

Товарищ, верь, пройдет она,
Так называемая гласность.
И вот тогда госбезопасность
Припомнит ваши имена
Раздачи от Амангельды - ТЫНЦ
[Профиль]  [ЛС] 

mike-ff

Лоцман

Пост 17-Июн-2012 00:10 (спустя 1 месяц 15 дней)

[Q] 

Спасибо!!!! Мой любимый фильм.. Были в местах где снимали, летом, жара, просто жесть, я понял как наши бойцы в 40 градусов...СВЕТЛАЯ ВСЕМ ПАМЯТЬ!!!!!!!!!
[Профиль]  [ЛС] 

Пост 28-Июн-2012 17:43 (спустя 11 дней)

Топик был перенесен из форума Подвал (для восстановления раздач) в форум Советское кино

erchine
 

Дядя Витя

53836

Пост 28-Июн-2012 22:26 (спустя 11 дней)

[Q] 


_________________
?
[Профиль]  [ЛС] 

Nitro

Корсар

Пост 28-Июн-2012 23:01 (спустя 34 минуты)

[Q] 

[Профиль]  [ЛС] 

SeryiSema

Шкипер

Пост 29-Июн-2012 13:19 (спустя 14 часов)

[Q] 

Спасибо большое. Великолепный фильм.
[Профиль]  [ЛС] 

seriy-lu

Штурман

Пост 16-Янв-2013 16:00 (спустя 6 месяцев 17 дней)

[Q] 

[Профиль]  [ЛС] 

lipisey

Лоцман

Пост 16-Фев-2013 18:05 (спустя 1 месяц)

[Q] 

Скачаю - посмотрю! Очень близко к реальному!
[Профиль]  [ЛС] 

UncleFather

Легенда

Пост 16-Мар-2013 09:23 (спустя 27 дней)

[Q] 


_________________
Одни боялись Пью, другие - Билли Бонса, а меня... меня боялся сам Флинт
[Профиль]  [ЛС] 

papanj

Легенда

Пост 29-Сен-2013 03:20 (спустя 6 месяцев 12 дней)

[Q] 

В каждом нормальном современном человеке есть патриотизм к своей Родине, но интересно было бы узнать каков патриотизм в наше время... и это уникальный фильм на все времена, чтобы помнили!

_________________
"Не понимаю, зачем думать все время о других..." - "Тебе этого не понять, потому что ты не король..."
Я.Корчак. Король Матиуш Первый
[Профиль]  [ЛС] 

TaJlu6

Лоцман

Пост 30-Сен-2013 04:08 (спустя 1 день)

[Q] 

мне в конце года исполнится 28 лет...этот фильм я увидел около 20-ти лет назад...как раз где-то в 1-м или 2-м классе...и сколько я его ни пересматривал с тех пор - всё равно глаза слезятся...вечное кино,вечный актёры...жаль,что нынешний наш кинематограф прогнил...и прогнили актёрские школы...ибо сейчас у нас в актёрах сплошные бездари,которые никогда не сыграют так же,как актёры этого замечательного фильма...
[Профиль]  [ЛС] 

NektoWaso

Флибустьер

Пост 28-Окт-2013 20:27 (спустя 28 дней)

[Q] 

НЕСТАРЕЮЩИЙ ЗАМЕЧАТЕЛЬНЫЙ ФИЛЬМ!
[Профиль]  [ЛС] 

NektoWaso

Флибустьер

Пост 04-Ноя-2013 14:25 (спустя 6 дней)

[Q] 

классика! смотреть всем! нестареющее кино!
[Профиль]  [ЛС] 
Показать сообщения:    
Ответить на тему

Текущее время: Сегодня 13:31

Часовой пояс: GMT + 4



Вы не можете начинать темы
Вы не можете отвечать на сообщения
Вы не можете редактировать свои сообщения
Вы не можете удалять свои сообщения
Вы не можете голосовать в опросах
Вы не можете прикреплять файлы к сообщениям
Вы не можете скачивать файлы

▼ Вниз