ML
     
  Уважаемый Гость!
Вы можете поддержать проект и зарегистрироваться у наших партнеров - онлайн-стратегия MyLands. При регистрации в игре Вы получите код, который сможете активировать после регистрации на pirat.ca и получить 1000 дублонов.

Ваш код:
4fbd9898b6f10799a3e8edf60f31febd2bc15453
 
     

Старики - разбойники (Эльдар Рязанов) [1971 г., комедия, DVDRip]

Ответить на тему
 
Автор
Сообщение

Пост 31-Окт-2011 18:49

[Q] 

kufre

Корсар

Старики - разбойники
Год выпуска: 1971
Жанр: комедия
Продолжительность: 01:26:27
Режиссер: Эльдар Рязанов
В ролях: Юрий Никулин, Евгений Евстигнеев, Ольга Аросева, Георгий Бурков, Андрей Миронов, Валентина Владимирова, Юрий Белов, Валентина Талызина, Роман Филиппов, Нина Агапова и др.
Описание: Следователя прокуратуры Мячикова, достигшего пенсионного возраста, пытаются насильно «уйти» с работы, так как на его место есть кандидат, присланный «сверху». Вместе со своим старинным другом, инженером Воробьевым, Мячиков решает организовать преступление, раскрыв которое он сможет доказать свою необходимость и незаменимость…
Доп. информация: Действие фильма происходит во Львове.
В опубликованном сценарии Мячиков находит грабителя, задерживает его и приводит к Федяеву, но тот отпускает преступника за отсутствием улик. В фильм этот эпизод не вошел.
Картина, которую украли герои фильма, называется «Портрет молодого человека с кружевным воротником» 1964 г. и в находится в Государственном Эрмитаже.
Полное имя : F:\ШАРА F\ФИЛЬМЫ\НАШЕ\СТАРИКИ-РАЗБОЙНИКИ (1971) (DVDRip) полная реставрация.avi
Формат : AVI
Формат/Информация : Audio Video Interleave
Размер файла : 1,40 Гбайт
Продолжительность : 1 ч. 26 м.
Общий поток : 2312 Кбит/сек
Программа кодирования : VirtualDubMod 1.5.4.1 (build 2178/release)
Библиотека кодирования : VirtualDubMod build 2178/release
Видео
Идентификатор : 0
Формат : MPEG-4 Visual
Профиль формата : Advanced [email protected]
Параметр BVOP формата : 1
Параметр QPel формата : Нет
Параметр GMC формата : Без точки перехода
Параметр матрицы формата : Выборочная
Идентификатор кодека : XVID
Идентификатор кодека/Подсказка : XviD
Продолжительность : 1 ч. 26 м.
Битрейт : 1857 Кбит/сек
Ширина : 720 пикс.
Высота : 544 пикс.
Соотношение сторон : 4:3
Частота кадров : 25,000 кадр/сек
Цветовое пространство : YUV
Подвыборка цветности : 4:2:0
Битовая глубина : 8 бит
Тип развёртки : Прогрессивная
Метод сжатия : С потерями
Бит/(Пиксели*Кадры) : 0.190
Размер потока : 1,12 Гбайт (80%)
Библиотека кодирования : XviD 1.2.0.dev47 (UTC 2006-11-01)
Аудио
Идентификатор : 1
Формат : AC-3
Формат/Информация : Audio Coding 3
Расширение режима : CM (complete main)
Идентификатор кодека : 2000
Продолжительность : 1 ч. 26 м.
Вид битрейта : Постоянный
Битрейт : 448 Кбит/сек
Каналы : 6 каналов
Расположение каналов : Front: L C R, Side: L R, LFE
Частота : 48,0 КГц
Битовая глубина : 16 бит
Метод сжатия : С потерями
Задержка видео : 558 мс.
Размер потока : 277 Мбайт (19%)
Выравнивание : Разделение по промежуткам
Продолжительность промежутка : 96 мс. (2,40 видеокадра)
Время предзагрузки промежутка : 96 ms
Качество: DVDRip
Формат: AVI
Видео кодек: XviD
Аудио кодек: AC3
Видео: 720x544 (1.32:1), 25 fps, XviD build 47 ~1857 kbps avg, 0.19 bit/pixel
Аудио: 48 kHz, AC3 Dolby Digital, 3/2 (L,C,R,l,r) + LFE ch, ~448 kbps



Download / Скачать

Хотите скачать бесплатно? Зарегистрируйтесь на сайте (ссылка на регистрацию). Pirat.ca - самый быстрый торрент трекер в рунете!

Как скачивать  ·   Что такое торрент  ·   Рейтинг и ограничения



Последний раз редактировалось: kufre (2011-11-16 20:40), всего редактировалось 1 раз

Пост 01-Ноя-2011 02:36 (спустя 7 часов)

Топик был перенесен из форума Наше Кино в форум Советское кино

Чужая
 

Creed72

9780

Пост 01-Ноя-2011 19:48 (спустя 1 день)

[Q] 

Раздача поддерживается группой Seed Aid.

_________________
Я мзду не беру. Мне за Державу обидно.(с)
[Профиль]  [ЛС] 

Luzhok

Легенда

Пост 04-Ноя-2011 15:14 (спустя 2 дня 19 часов)

[Q] 

kufre, благодарю
[Профиль]  [ЛС] 

Pesok

Гроза морей

Пост 16-Ноя-2011 21:09 (спустя 12 дней)

[Q] 

Спасибо! Как раз этого фильма и не было у меня в библиотеке супер советских фильмов! за пару лет - библиотека почти полна спасибо пирату

_________________
[Профиль]  [ЛС] 

PaulCONS

Лоцман

Пост 29-Авг-2012 21:19 (спустя 9 месяцев 13 дней)

[Q] 

Дайте скачать, пожалуйста.
[Профиль]  [ЛС] 

LORD OR

Корсар

Пост 12-Ноя-2012 22:14 (спустя 2 месяца 14 дней)

[Q] 

[Профиль]  [ЛС] 

Димарик82

Корсар

725

Пост 15-Ноя-2012 00:42 (спустя 2 дня 2 часа)

[Q] 

[Профиль]  [ЛС] 

lebonnet

Флибустьер

Пост 19-Ноя-2012 18:22 (спустя 4 дня)

[Q] 

[Профиль]  [ЛС] 

Alex2k13

Пост 02-Дек-2013 09:31 (спустя 1 год)

[Q] 

11613Раздача поддерживается группой Seed Aid.
Что-то я не вижу поддержки. Но, раз, я состою в этой группе, то поддержу.

_________________
[Профиль]  [ЛС] 

Creed72

9780

Пост 02-Дек-2013 12:44 (спустя 3 часа)

[Q] 

456985Что-то я не вижу поддержки
Дату моего сообщения посмотрите....

_________________
Я мзду не беру. Мне за Державу обидно.(с)
[Профиль]  [ЛС] 

AndyFox

Корсар

376

Пост 05-Янв-2014 23:30 (спустя 1 месяц 3 дня)

[Q] 

Фильм про будни работника прокуратуры... =)

_________________
Torrent.
[Профиль]  [ЛС] 

Simsim

Морской Волк

Пост 23-Ноя-2014 18:10 (спустя 10 месяцев 17 дней)

[Q] 

Спасибо ! смотрел повторно, не так давно , очень классный фильм.
[Профиль]  [ЛС] 

R_O_Z_A

Морской Волк

Пост 25-Фев-2015 23:16 (спустя 3 месяца 2 дня)

[Q] 

Большое спасибо Автору респект!!!
[Профиль]  [ЛС] 

Семен

Морской Волк

Пост 25-Мар-2015 21:01 (спустя 27 дней)

[Q] 

Рязанова можно смотреть вечно! И вечно будет)))))
[Профиль]  [ЛС] 
Показать сообщения:    
Ответить на тему

Текущее время: Сегодня 19:56

Часовой пояс: GMT + 4



Вы не можете начинать темы
Вы не можете отвечать на сообщения
Вы не можете редактировать свои сообщения
Вы не можете удалять свои сообщения
Вы не можете голосовать в опросах
Вы не можете прикреплять файлы к сообщениям
Вы не можете скачивать файлы

▼ Вниз