ML
     
  Уважаемый Гость!
Вы можете поддержать проект и зарегистрироваться у наших партнеров - онлайн-стратегия MyLands. При регистрации в игре Вы получите код, который сможете активировать после регистрации на pirat.ca и получить 1000 дублонов.

Ваш код:
6f9ab67d502902cc72a06c406977ddb589b7f39d
 
     

Блондинка за углом. (Владимир Бортко) [1984 г., комедия, мелодрама, DVDRip]

Ответить на тему
 
Автор
Сообщение

Пост 02-Ноя-2011 16:55

[Q] 

Shishkin150968

Лоцман

Блондинка за углом.
Год выпуска: 1984
Жанр: комедия, мелодрама
Продолжительность: 1 :18:00
Режиссер: Владимир Бортко
В ролях: Татьяна Догилева
Андрей Миронов
Алексей Жарков
Марк Прудкин
Евгения Ханаева
Елена Соловей
Анатолий Сливников
Баадур Цуладзе
Анатолий Равикович
Сергей Бехтерев
Павел Кадочников
Описание: Устроившись работать грузчиком, бывший астрофизик влюбляется в продавщицу и оказывается в окружении людей, чуждых ему. Он старается приобщить девушку к иной жизни, но на свадебном вечере убожество «служак дефицита» обнажается до предела, и герой сбегает.
Источник/Качество: DVDRip
Формат: AVI
Видео кодек: XviD
Аудио кодек: AC3
Видео: 720х416 (16:9), 25 fps, XviD 1.2.0.dev47 (UTC 2006-11-01), ~2287 kbps avg, 0.305 b/pixel
Аудио: 48 kHz, AC3 Dolby Digital, 2/0 (L,R) ch, ~192 kbps
Общее
Полное имя : F:\ФИЛЬМЫ\Наши старые фильмы\Blondinka_Za_Uglom(1984) .avi
Формат : AVI
Формат/Информация : Audio Video Interleave
Размер файла : 1,36 Гбайт
Продолжительность : 1 ч. 18 м.
Общий поток : 2486 Кбит/сек
Программа кодирования : VirtualDubMod 1.5.4.1 (build 2178/release)
Библиотека кодирования : VirtualDubMod build 2178/release
Видео
Идентификатор : 0
Формат : MPEG-4 Visual
Профиль формата : Advanced [email protected]
Параметр BVOP формата : 1
Параметр QPel формата : Нет
Параметр GMC формата : Без точки перехода
Параметр матрицы формата : Выборочная
Идентификатор кодека : XVID
Идентификатор кодека/Подсказка : XviD
Продолжительность : 1 ч. 18 м.
Битрейт : 2287 Кбит/сек
Ширина : 720 пикселей
Высота : 416 пикселей
Соотношение сторон : 16:9
Частота кадров : 25,000 кадров/сек
Цветовое пространство : YUV
Субдискретизация насыщенности : 4:2:0
Битовая глубина : 8 бит
Тип развёртки : Прогрессивная
Метод сжатия : С потерями
Бит/(Пиксели*Кадры) : 0.305
Размер потока : 1,25 Гбайт (92%)
Библиотека кодирования : XviD 1.2.0.dev47 (UTC 2006-11-01)
Аудио
Идентификатор : 1
Формат : AC-3
Формат/Информация : Audio Coding 3
Расширение режима : CM (complete main)
Идентификатор кодека : 2000
Продолжительность : 1 ч. 18 м.
Вид битрейта : Постоянный
Битрейт : 192 Кбит/сек
Каналы : 2 канала
Расположение каналов : Front: L R
Частота : 48,0 КГц
Битовая глубина : 16 бит
Метод сжатия : С потерями
Размер потока : 108 Мбайт (8%)
Выравнивание : Разделение по промежуткам
Продолжительность промежутка : 96 мс. (2,40 видеокадра)
Время предзагрузки промежутка : 96 мс.
Язык : Russian
Download / Скачать

Хотите скачать бесплатно? Зарегистрируйтесь на сайте (ссылка на регистрацию). Pirat.ca - самый быстрый торрент трекер в рунете!

Как скачивать  ·   Что такое торрент  ·   Рейтинг и ограничения



Последний раз редактировалось: Shishkin150968 (2011-11-08 22:03), всего редактировалось 3 раз(а)

Пост 03-Ноя-2011 17:14 (спустя 1 день)

Топик был перенесен из форума Российские фильмы в форум Советское кино

Чужая
 

anonymoys

Гроза морей

901

Пост 05-Фев-2012 12:16 (спустя 3 месяца 2 дня)

[Q] 

[Профиль]  [ЛС] 

abc7

Гроза морей

464

Пост 05-Фев-2012 21:16 (спустя 8 часов)

[Q] 

Не плюсовать - себя не уважать!!!
[Профиль]  [ЛС] 

ravinmtv

Морской Волк

Пост 07-Фев-2012 17:41 (спустя 1 день 20 часов)

[Q] 

[Профиль]  [ЛС] 

RIIDDIK

Шкипер

84

Пост 10-Фев-2012 11:35 (спустя 2 дня 17 часов)

[Q] 

[Профиль]  [ЛС] 

megamastor

2827

Пост 04-Апр-2012 07:48 (спустя 1 месяц 22 дня)

[Q] 

[Профиль]  [ЛС] 

keppi

Морской Волк

1896

Пост 10-Янв-2013 23:13 (спустя 9 месяцев 6 дней)

[Q] 


_________________
Если нет своей цели в жизни, то будешь работать на того, у кого она есть.
[Профиль]  [ЛС] 

UncleFather

Легенда

Пост 24-Мар-2013 20:56 (спустя 2 месяца 13 дней)

[Q] 


_________________
Одни боялись Пью, другие - Билли Бонса, а меня... меня боялся сам Флинт
[Профиль]  [ЛС] 
Показать сообщения:    
Ответить на тему

Текущее время: Сегодня 16:26

Часовой пояс: GMT + 4



Вы не можете начинать темы
Вы не можете отвечать на сообщения
Вы не можете редактировать свои сообщения
Вы не можете удалять свои сообщения
Вы не можете голосовать в опросах
Вы не можете прикреплять файлы к сообщениям
Вы не можете скачивать файлы

▼ Вниз