ML
     
  Уважаемый Гость!
Вы можете поддержать проект и зарегистрироваться у наших партнеров - онлайн-стратегия MyLands. При регистрации в игре Вы получите код, который сможете активировать после регистрации на pirat.ca и получить 1000 дублонов.

Ваш код:
8b752b428cf60a012c159dcae592cd1392170115
 
     

Печки-лавочки (Василий Шукшин) [1972 г., комедия, DVDRip]

Ответить на тему
 
Автор
Сообщение

Пост 03-Ноя-2011 18:05

[Q] 

kufre

Корсар

Печки-лавочки
Год выпуска: 1972
Жанр: комедия
Продолжительность: 01:35:34
Режиссер: Василий Шукшин
В ролях: Лидия Федосеева-Шукшина, Василий Шукшин, Всеволод Санаев, Георгий Бурков, Зиновий Гердт, Иван Рыжов, Станислав Любшин, Вадим Захарченко, Елизавета Уварова, Любовь Мышева
Описание: История о путешествии к южному морю семейной пары из далекого алтайского села. Супруги впервые в жизни едут в отпуск по выделенной профкомом путевке, да еще в отдельном купе! Дорожные приключения и ритм новой жизни увлекают их, но и среди красот южной природы не могут они забыть о родных местах и близких людях, которые ждут их возвращения.
Полное имя : F:\ШАРА F\ФИЛЬМЫ\НАШЕ\Печки-лавочки.avi
Формат : AVI
Формат/Информация : Audio Video Interleave
Размер файла : 1,37 Гбайт
Продолжительность : 1 ч. 35 м.
Общий поток : 2045 Кбит/сек
Программа кодирования : VirtualDubModRus 1.5.10.2 (build 2542/release)
Библиотека кодирования : VirtualDubMod build 2542/release
Видео
Идентификатор : 0
Формат : MPEG-4 Visual
Параметр BVOP формата : 1
Параметр QPel формата : Нет
Параметр GMC формата : Без точки перехода
Параметр матрицы формата : Default (H.263)
Режим смешивания : Сжатый битовый поток
Идентификатор кодека : DX50
Идентификатор кодека/Подсказка : DivX 5
Продолжительность : 1 ч. 35 м.
Битрейт : 1875 Кбит/сек
Ширина : 720 пикс.
Высота : 320 пикс.
Соотношение сторон : 2,25:1
Частота кадров : 25,000 кадр/сек
Цветовое пространство : YUV
Подвыборка цветности : 4:2:0
Битовая глубина : 8 бит
Тип развёртки : Прогрессивная
Метод сжатия : С потерями
Бит/(Пиксели*Кадры) : 0.326
Размер потока : 1,26 Гбайт (92%)
Библиотека кодирования : DivX 5.2.1 Alpha (UTC 2004-09-08)
Аудио
Идентификатор : 1
Формат : MPEG Audio
Версия формата : Version 1
Профиль формата : Layer 3
Режим : Joint stereo
Расширение режима : MS Stereo
Идентификатор кодека : 55
Идентификатор кодека/Подсказка : MP3
Продолжительность : 1 ч. 35 м.
Вид битрейта : Постоянный
Битрейт : 160 Кбит/сек
Каналы : 2 канала
Частота : 48,0 КГц
Метод сжатия : С потерями
Размер потока : 110 Мбайт (8%)
Выравнивание : Соединение по промежуткам
Продолжительность промежутка : 40 мс. (1,00 видеокадр)
Время предзагрузки промежутка : 504 ms
Библиотека кодирования : LAME3.97
Настройки программы : -m j -V 4 -q 2 -b 160
Источник/Качество: DVDRip
Формат: AVI
Видео кодек: DivX
Аудио кодек: MP3
Видео: 720x320 (2.25:1), 25 fps, DivX Codec 5.2.1 alpha ~1875 kbps avg, 0.33 bit/pixel
Аудио: 48 kHz, MPEG Layer 3, 2 ch, ~160.00 kbps avg



Download / Скачать

Хотите скачать бесплатно? Зарегистрируйтесь на сайте (ссылка на регистрацию). Pirat.ca - самый быстрый торрент трекер в рунете!

Как скачивать  ·   Что такое торрент  ·   Рейтинг и ограничения



Последний раз редактировалось: kufre (2011-11-16 20:37), всего редактировалось 1 раз

Пост 04-Ноя-2011 02:21 (спустя 8 часов)

Топик был перенесен из форума Современное кино (с 2000 г.) в форум Советское кино

Чужая
 

Luzhok

Легенда

Пост 04-Ноя-2011 14:22 (спустя 20 часов)

[Q] 

помогаю
kufre,
спасибо
[Профиль]  [ЛС] 

Pesok

Гроза морей

Пост 16-Ноя-2011 21:19 (спустя 12 дней)

[Q] 

Спасибо! Как раз этого фильма и не было у меня в библиотеке супер советских фильмов! буду помагать в раздаче по крайней мере месяц

_________________
[Профиль]  [ЛС] 

Jalok

Лоцман

Пост 17-Дек-2011 07:27 (спустя 1 месяц)

[Q] 

Спасибо!

_________________
Жизнь прекрасна и удивительна!!!
[Профиль]  [ЛС] 

UncleFather

Легенда

Пост 16-Мар-2013 09:30 (спустя 1 год 2 месяца)

[Q] 


_________________
Одни боялись Пью, другие - Билли Бонса, а меня... меня боялся сам Флинт
[Профиль]  [ЛС] 

Trianon777

Морской Волк

Пост 20-Июл-2014 21:01 (спустя 1 год 4 месяца)

[Q] 

СПАСИБО за такой прекрасный фильм о простых людях!!! В.М.Шукшин, конечно, каждым своим фильмом попадал в "яблочко". 10 баллов из 10...
Рекомендуется к просмотру всем!
[Профиль]  [ЛС] 

Rusad

Флибустьер

Пост 19-Окт-2014 19:53 (спустя 2 месяца 29 дней)

[Q] 

Классика!Даже тем кто смотрел,смотреть чтобы выучить полностью,ЧТОБЫ ОТ ЗУБОВ ОТСКАКИВАЛО!!!
[Профиль]  [ЛС] 

xzxscorpxzx

Флибустьер

Пост 15-Фев-2016 11:38 (спустя 1 год 3 месяца)

[Q] 

классика,супер)
[Профиль]  [ЛС] 
Показать сообщения:    
Ответить на тему

Текущее время: Сегодня 06:21

Часовой пояс: GMT + 4



Вы не можете начинать темы
Вы не можете отвечать на сообщения
Вы не можете редактировать свои сообщения
Вы не можете удалять свои сообщения
Вы не можете голосовать в опросах
Вы не можете прикреплять файлы к сообщениям
Вы не можете скачивать файлы

▼ Вниз