ML
     
  Уважаемый Гость!
Вы можете поддержать проект и зарегистрироваться у наших партнеров - онлайн-стратегия MyLands. При регистрации в игре Вы получите код, который сможете активировать после регистрации на pirat.ca и получить 1000 дублонов.

Ваш код:
ca44e9295b9b8527ba1c339c20494f70782efea6
 
     

Ты мне,я тебе (Александр Серый) [1976 г., комедия, DVDRip]

Ответить на тему
 
Автор
Сообщение

Пост 03-Ноя-2011 19:42

[Q] 

kufre

Корсар

Ты мне,я тебе
Год выпуска: 1976
Жанр: комедия
Продолжительность: 01:11:38
Режиссер: Александр Серый
В ролях: Леонид Куравлев, Татьяна Пельтцер, Алла Мещерякова, Светлана Светличная, Юрий Медведев, Валерий Носик, Роман Ткачук, Евгений Шутов, Илья Рутберг, Ян Янакиев, Валентина Карева, ...
Описание: Жизнь братьев-близнецов Кашкиных сложилась по-разному: один живет в столице и вполне преуспел в качестве модного… банщика. Другой же так и остался в родном селе простым инспектором рыбнадзора. Но вот случается беда, и столичному счастливцу приходится заменить брата на его посту…
Доп. информация: Занимает по посещаемости 79-е место среди отечественных фильмов за всю историю советского кинопроката.
Полное имя : H:\ШАРА\ВИДЕО\ФИЛЬМЫ\Н А Ш Е\Ты мне,я тебе.1976.XviD.DVDRip.avi
Формат : AVI
Формат/Информация : Audio Video Interleave
Размер файла : 1,37 Гбайт
Продолжительность : 1 ч. 21 м.
Общий поток : 2391 Кбит/сек
Программа кодирования : VirtualDubMod 1.5.4.1 (build 2178/release)
Библиотека кодирования : VirtualDubMod build 2178/release
Видео
Идентификатор : 0
Формат : MPEG-4 Visual
Профиль формата : Advanced [email protected]
Параметр BVOP формата : 1
Параметр QPel формата : Нет
Параметр GMC формата : Без точки перехода
Параметр матрицы формата : Выборочная
Идентификатор кодека : XVID
Идентификатор кодека/Подсказка : XviD
Продолжительность : 1 ч. 21 м.
Битрейт : 2192 Кбит/сек
Ширина : 720 пикс.
Высота : 368 пикс.
Соотношение сторон : 1,957
Частота кадров : 25,000 кадр/сек
Цветовое пространство : YUV
Подвыборка цветности : 4:2:0
Битовая глубина : 8 бит
Тип развёртки : Прогрессивная
Метод сжатия : С потерями
Бит/(Пиксели*Кадры) : 0.331
Размер потока : 1,25 Гбайт (92%)
Библиотека кодирования : XviD 1.2.0.dev47 (UTC 2006-11-01)
Аудио
Идентификатор : 1
Формат : AC-3
Формат/Информация : Audio Coding 3
Расширение режима : CM (complete main)
Идентификатор кодека : 2000
Продолжительность : 1 ч. 21 м.
Вид битрейта : Постоянный
Битрейт : 192 Кбит/сек
Каналы : 2 канала
Расположение каналов : Front: L R
Частота : 48,0 КГц
Битовая глубина : 16 бит
Метод сжатия : С потерями
Размер потока : 112 Мбайт (8%)
Выравнивание : Разделение по промежуткам
Продолжительность промежутка : 96 мс. (2,40 видеокадра)
Время предзагрузки промежутка : 96 ms
Язык : Russian
Источник/Качество: DVDRip
Формат: AVI
Видео кодек: XviD
Аудио кодек: AC3
Видео: 720x368 (1.96:1), 25 fps, XviD build 47 ~2192 kbps avg, 0.33 bit/pixel
Аудио: 48 kHz, AC3 Dolby Digital, 2/0 (L,R) ch, ~192 kbps



-
Download / Скачать

Хотите скачать бесплатно? Зарегистрируйтесь на сайте (ссылка на регистрацию). Pirat.ca - самый быстрый торрент трекер в рунете!

Как скачивать  ·   Что такое торрент  ·   Рейтинг и ограничения



Последний раз редактировалось: kufre (2012-04-29 12:49), всего редактировалось 2 раз(а)

Пост 04-Ноя-2011 00:39 (спустя 4 часа)

Топик был перенесен из форума Наше Кино в форум Советское кино

Чужая
 

Luzhok

Легенда

Пост 05-Ноя-2011 16:28 (спустя 1 день 20 часов)

[Q] 

kufre, спасибо
[Профиль]  [ЛС] 

сергей65

Штурман

Пост 28-Апр-2012 18:28 (спустя 5 месяцев 23 дня)

[Q] 

спасибо за работу
[Профиль]  [ЛС] 

PaulCONS

Лоцман

Пост 29-Авг-2012 21:15 (спустя 4 месяца 1 день)

[Q] 

Раздайте, пожалуйста. :)
[Профиль]  [ЛС] 

LORD OR

Корсар

Пост 12-Ноя-2012 22:17 (спустя 2 месяца 14 дней)

[Q] 

[Профиль]  [ЛС] 

Димарик82

Корсар

725

Пост 15-Ноя-2012 00:40 (спустя 2 дня 2 часа)

[Q] 

[Профиль]  [ЛС] 

keppi

Морской Волк

1896

Пост 10-Янв-2013 23:17 (спустя 1 месяц 25 дней)

[Q] 


_________________
Если нет своей цели в жизни, то будешь работать на того, у кого она есть.
[Профиль]  [ЛС] 

komar48

Шкипер

Пост 16-Янв-2013 08:47 (спустя 5 дней)

[Q] 

[Профиль]  [ЛС] 

UncleFather

Легенда

Пост 24-Мар-2013 21:06 (спустя 2 месяца 8 дней)

[Q] 


_________________
Одни боялись Пью, другие - Билли Бонса, а меня... меня боялся сам Флинт
[Профиль]  [ЛС] 

pp2141

Гроза морей

Пост 27-Фев-2016 15:17 (спустя 2 года 11 месяцев)

[Q] 

Спасибо. Спасибо!!!
[Профиль]  [ЛС] 
Показать сообщения:    
Ответить на тему

Текущее время: Сегодня 16:16

Часовой пояс: GMT + 4



Вы не можете начинать темы
Вы не можете отвечать на сообщения
Вы не можете редактировать свои сообщения
Вы не можете удалять свои сообщения
Вы не можете голосовать в опросах
Вы не можете прикреплять файлы к сообщениям
Вы не можете скачивать файлы

▼ Вниз