ML
     
  Уважаемый Гость!
Вы можете поддержать проект и зарегистрироваться у наших партнеров - онлайн-стратегия MyLands. При регистрации в игре Вы получите код, который сможете активировать после регистрации на pirat.ca и получить 1000 дублонов.

Ваш код:
a6d1ef7ff63e237add5a4c8b21d8aa937c5e9b4b
 
     

Калина красная (Василий Шукшин) [1973 г., драма, DVDRip]

Ответить на тему
 
Автор
Сообщение

Пост 03-Ноя-2011 20:03

[Q] 

kufre

Корсар

Калина красная
Год выпуска: 1973
Жанр: драма
Продолжительность: 01.42:00
Режиссер: Василий Шукшин
В ролях: Лидия Федосеева-Шукшина, Василий Шукшин, Иван Рыжов, Мария Скворцова, Алексей Ванин, Мария Виноградова, Ольга Быстрова, Жанна Прохоренко, Лев Дуров, Анатолий Горбенко, Николай Граббе, Николай Погодин,Георгий Бурков,Татьяна Гаврилова, Алексей Макаров, Олег Корчиков, Наталья Гвоздикова, Юрий Саранцев
Описание: Выйдя из тюрьмы, Егор Прокудин, по кличке Горе, решает податься в деревню, где живет синеглазая незнакомка Люба, с которой он переписывался — ведь надо немного переждать и осмотреться. Но жизнь в деревне рушит все планы Егора, и он решает навсегда порвать с прошлым. Теперь у него есть друзья, работа. Он любит Любу. Однако дружки Егора упорно не отпускают его…
Доп. информация: Шукшин очень собранно входил в съёмочный период «Калины красной». Например, документальные кадры, где заключённый поёт песню «Ты жива ещё, моя старушка» (этого в сценарии не было), он нашёл среди тысяч километров киноплёнки спецкинохроники МВД. «Калина красная» так и начинается концертом зэков, который снимался в настоящей колонии под Москвой.
Занимает по посещаемости 14-е место среди отечественных фильмов за всю историю советского кинопроката.
Лучший фильм по опросу журнала «Советский экран» в 1975 году.
Киноповесть «Калина красная» В.М. Шукшин написал в больнице.
Василий Макарович Шукшин в фильме был и сценаристом, и исполнителем главной роли, и режиссёром.
Госкино выделило на картину всего 3 тысячи 600 метров дефицитной тогда плёнки «Кодак». А для работы нужно было в шесть раз больше. Поэтому первый «разгонный» дубль снимали на отечественной «Свеме», потом заряжали «Кодак», и тут уже все работали в полную силу.
Одной из ключевых в фильме является сцена встречи Егора со своей матерью после двадцатилетней разлуки. Решили уговорить сняться в крошечной сценке кого-нибудь из очень больших актрис и позвонили Марецкой. Вера Петровна дала согласие, но, к сожалению, вскоре заболела.Тогда дерзнули попробовать отыскать реальную судьбу, сходную с той, которая была нужна. В итоге засняли документальную беседу именно с такой матерью, у которой война отняла всех сыновей.
Неграмотная крестьянка Ефимья (в титрах Офимья) Ефимовна Быстрова из вологодской деревни рассказывала про свою жизнь, про своих детей. Камеру установили на улице, снимали через выставленное окошко, звук писали синхронно. Бабушка наговаривала рассказ о себе, отвечая на вопросы Лидии Федосеевой, которые были заранее продуманы и направляли рассказ в нужное для фильма русло.
На Всесоюзном кинофестивале в Баку в апреле 1974 года «Калина красная» была награждена главным призом.
Полное имя : H:\ШАРА\ВИДЕО\ФИЛЬМЫ\Н А Ш Е\Калина красная.1973.XviD.DVDRip.avi
Формат : AVI
Формат/Информация : Audio Video Interleave
Размер файла : 1,46 Гбайт
Продолжительность : 1 ч. 42 м.
Общий поток : 2056 Кбит/сек
Программа кодирования : VirtualDubMod 1.5.10.2 (build 2540/release)
Библиотека кодирования : VirtualDubMod build 2540/release
Видео
Идентификатор : 0
Формат : MPEG-4 Visual
Профиль формата : Advanced [email protected]
Параметр BVOP формата : 1
Параметр QPel формата : Нет
Параметр GMC формата : Без точки перехода
Параметр матрицы формата : Default (MPEG)
Режим смешивания : Сжатый битовый поток
Идентификатор кодека : XVID
Идентификатор кодека/Подсказка : XviD
Продолжительность : 1 ч. 42 м.
Битрейт : 1598 Кбит/сек
Ширина : 704 пикс.
Высота : 496 пикс.
Соотношение сторон : 1,419
Частота кадров : 25,000 кадр/сек
Цветовое пространство : YUV
Подвыборка цветности : 4:2:0
Битовая глубина : 8 бит
Тип развёртки : Прогрессивная
Метод сжатия : С потерями
Бит/(Пиксели*Кадры) : 0.183
Размер потока : 1,14 Гбайт (78%)
Библиотека кодирования : XviD 1.0.3 (UTC 2004-12-20)
Аудио
Идентификатор : 1
Формат : AC-3
Формат/Информация : Audio Coding 3
Расширение режима : CM (complete main)
Идентификатор кодека : 2000
Продолжительность : 1 ч. 41 м.
Вид битрейта : Постоянный
Битрейт : 448 Кбит/сек
Каналы : 6 каналов
Расположение каналов : Front: L C R, Side: L R, LFE
Частота : 48,0 КГц
Битовая глубина : 16 бит
Метод сжатия : С потерями
Размер потока : 327 Мбайт (22%)
Выравнивание : Разделение по промежуткам
Продолжительность промежутка : 40 мс. (1,00 видеокадр)
Время предзагрузки промежутка : 500 ms
Источник/Качество: DVDRip
Формат: AVI
Видео кодек: XviD
Аудио кодек: AC3
Видео: 704x496 (1.42:1), 25 fps, XviD Final 1.0.3 (build 37) ~1598 kbps avg, 0.18 bit/pixel
Аудио: 48 kHz, AC3 Dolby Digital, 3/2 (L,C,R,l,r) + LFE ch, ~448 kbps





Download / Скачать

Хотите скачать бесплатно? Зарегистрируйтесь на сайте (ссылка на регистрацию). Pirat.ca - самый быстрый торрент трекер в рунете!

Как скачивать  ·   Что такое торрент  ·   Рейтинг и ограничения



Последний раз редактировалось: kufre (2011-11-16 20:34), всего редактировалось 1 раз

doorg

Шкипер

Пост 03-Ноя-2011 23:28 (спустя 3 часа)

[Q] 

этот фильм надо в школах показывать , просто шедевральное творение Шукшина !
[Профиль]  [ЛС] 

Пост 04-Ноя-2011 00:39 (спустя 1 час 10 минут)

Топик был перенесен из форума Наше Кино в форум Советское кино

Skinwalker
 

anonymoys

Гроза морей

901

Пост 05-Фев-2012 12:12 (спустя 3 месяца 1 день)

[Q] 

[Профиль]  [ЛС] 

VaNo192

Корсар

Пост 27-Фев-2012 06:41 (спустя 21 день)

[Q] 

Отличный фильм!
[Профиль]  [ЛС] 

abc7

Гроза морей

464

Пост 27-Мар-2012 20:08 (спустя 1 месяц)

[Q] 

doorg, +1
[Профиль]  [ЛС] 

CHARLI2236

1089

Пост 31-Май-2012 15:32 (спустя 2 месяца 3 дня)

[Q] 

благодарю

_________________
[Профиль]  [ЛС] 

bbsadm

Матрос

Пост 28-Июн-2014 14:39 (спустя 2 года)

[Q] 

спасибо! отличная классика.
[Профиль]  [ЛС] 

rampage-2

Шкипер

Пост 11-Окт-2015 06:05 (спустя 1 год 3 месяца)

[Q] 

Блин, но могли же снимать кино, фильм отличный, а сейчас что? СТЫДНО за наше кино, да и не только за наше.......
[Профиль]  [ЛС] 

xzxscorpxzx

Флибустьер

Пост 09-Фев-2016 03:30 (спустя 3 месяца 28 дней)

[Q] 

класика!супер!
[Профиль]  [ЛС] 
Показать сообщения:    
Ответить на тему

Текущее время: Сегодня 13:34

Часовой пояс: GMT + 4



Вы не можете начинать темы
Вы не можете отвечать на сообщения
Вы не можете редактировать свои сообщения
Вы не можете удалять свои сообщения
Вы не можете голосовать в опросах
Вы не можете прикреплять файлы к сообщениям
Вы не можете скачивать файлы

▼ Вниз