ML
     
  Уважаемый Гость!
Вы можете поддержать проект и зарегистрироваться у наших партнеров - онлайн-стратегия MyLands. При регистрации в игре Вы получите код, который сможете активировать после регистрации на pirat.ca и получить 1000 дублонов.

Ваш код:
0fcd44bd35319f69313aa6e53b31c51cbff1c942
 
     

Конец императора тайги (Владимир Саруханов) [1978 г., приключения, биография, DVDRip]

Ответить на тему
 
Автор
Сообщение

Пост 03-Ноя-2011 23:26

[Q] 

kufre

Корсар

Конец императора тайги
Год выпуска: 1978
Жанр: приключения, биография
Продолжительность: 01:25:17
Режиссер: Владимир Саруханов
В ролях: Андрей Ростоцкий, Иван Краско, Герман Качин, Юрий Майнагашев, Олег Балакин, Асанкул Куттубаев, Светлана Чаптыкова, Виталий Канзычаков, Нина Саруханова, Алексей Махайлов, Юрий Котюшев, Георгий Юматов
Описание: 1922 год — время, когда в Хакасии шли изнурительные бои красных с бандой атамана Соловьева. Фильм воспроизводит одну из малоизвестных страниц биографии Аркадия Гайдара (Голикова), когда он юношей был назначен командиром отряда ЧОНа (частей особого назначения).
Полное имя : H:\ШАРА\ВИДЕО\ФИЛЬМЫ\Н А Ш Е\Конец императора тайги.1978.DivX.DVDRip.avi
Формат : AVI
Формат/Информация : Audio Video Interleave
Размер файла : 1,37 Гбайт
Продолжительность : 1 ч. 25 м.
Общий поток : 2294 Кбит/сек
Программа кодирования : FairUse Wizard - http://fairusewizard.com
Библиотека кодирования : The best and REALLY easy backup tool
Видео
Идентификатор : 0
Формат : MPEG-4 Visual
Параметр BVOP формата : 1
Параметр QPel формата : Нет
Параметр GMC формата : Без точки перехода
Параметр матрицы формата : Default (H.263)
Режим смешивания : Сжатый битовый поток
Идентификатор кодека : DX50
Идентификатор кодека/Подсказка : DivX 5
Продолжительность : 1 ч. 25 м.
Битрейт : 1900 Кбит/сек
Ширина : 688 пикс.
Высота : 384 пикс.
Соотношение сторон : 16:9
Частота кадров : 25,000 кадр/сек
Цветовое пространство : YUV
Подвыборка цветности : 4:2:0
Битовая глубина : 8 бит
Тип развёртки : Прогрессивная
Метод сжатия : С потерями
Бит/(Пиксели*Кадры) : 0.288
Размер потока : 1,13 Гбайт (83%)
Библиотека кодирования : DivX 6.8.2 (UTC 2008-05-17)
Аудио
Идентификатор : 1
Формат : AC-3
Формат/Информация : Audio Coding 3
Расширение режима : CM (complete main)
Идентификатор кодека : 2000
Продолжительность : 1 ч. 25 м.
Вид битрейта : Постоянный
Битрейт : 384 Кбит/сек
Каналы : 6 каналов
Расположение каналов : Front: L C R, Side: L R, LFE
Частота : 48,0 КГц
Битовая глубина : 16 бит
Метод сжатия : С потерями
Размер потока : 234 Мбайт (17%)
Выравнивание : Разделение по промежуткам
Продолжительность промежутка : 40 мс. (1,00 видеокадр)
Время предзагрузки промежутка : 500 ms
Источник/Качество: DVDRip
Формат: AVI
Видео кодек: DivX
Аудио кодек: AC3
Видео: 688x384 (1.79:1), 25 fps, DivX Codec 6.8.2 ~1900 kbps avg, 0.29 bit/pixel
Аудио: 48 kHz, AC3 Dolby Digital, 3/2 (L,C,R,l,r) + LFE ch, ~384 kbps



Download / Скачать

Хотите скачать бесплатно? Зарегистрируйтесь на сайте (ссылка на регистрацию). Pirat.ca - самый быстрый торрент трекер в рунете!

Как скачивать  ·   Что такое торрент  ·   Рейтинг и ограничения



Последний раз редактировалось: kufre (2011-11-16 20:35), всего редактировалось 1 раз

Пост 04-Ноя-2011 00:40 (спустя 1 час 13 минут)

Топик был перенесен из форума Наше Кино в форум Советское кино

Skinwalker
 

Фисташка

Пост 15-Авг-2012 11:47 (спустя 9 месяцев 11 дней)

[Q] 

.
[Профиль]  [ЛС] 

LORD OR

Корсар

Пост 12-Ноя-2012 21:50 (спустя 2 месяца 28 дней)

[Q] 

[Профиль]  [ЛС] 
Показать сообщения:    
Ответить на тему

Текущее время: Сегодня 02:07

Часовой пояс: GMT + 4



Вы не можете начинать темы
Вы не можете отвечать на сообщения
Вы не можете редактировать свои сообщения
Вы не можете удалять свои сообщения
Вы не можете голосовать в опросах
Вы не можете прикреплять файлы к сообщениям
Вы не можете скачивать файлы

▼ Вниз