ML
     
  Уважаемый Гость!
Вы можете поддержать проект и зарегистрироваться у наших партнеров - онлайн-стратегия MyLands. При регистрации в игре Вы получите код, который сможете активировать после регистрации на pirat.ca и получить 1000 дублонов.

Ваш код:
8b752b428cf60a012c159dcae592cd1392170115
 
     

Суета сует (Алла Сурикова) [1979 г., комедия, DVDRip]

Ответить на тему
 
Автор
Сообщение

Пост 03-Ноя-2011 23:47

[Q] 

kufre

Корсар

Суета сует
Год выпуска: 1979
Жанр: комедия
Продолжительность: 01:22:17
Режиссер: Алла Сурикова
В ролях: Галина Польских, Фрунзик Мкртчян, Леонид Куравлёв, Анна Варпаховская, Сергей Иванов, Сергей Бачурский, Борислав Брондуков, Людмила Иванова, Леонид Харитонов, Наталья Крачковская
Описание: Много лет работник ЗАГСа Марина Петровна регистрировала счастливые браки. Но однажды на пороге учреждения оказался не кто иной, как ее собственный муж.
Увлекшись молодой женщиной, он решил изменить свою жизнь и уйти из семьи. Однако Марина Петровна своего согласия на развод не дала — и, как выяснилось, не зря…
Полное имя : H:\ШАРА\ВИДЕО\ФИЛЬМЫ\Н А Ш Е\Суета сует.1979.DivX.DVDRip.avi
Формат : AVI
Формат/Информация : Audio Video Interleave
Размер файла : 1,37 Гбайт
Продолжительность : 1 ч. 22 м.
Общий поток : 2376 Кбит/сек
Программа кодирования : VirtualDubMod 1.5.10.2 (build 2540/release)
Библиотека кодирования : VirtualDubMod build 2540/release
Видео
Идентификатор : 0
Формат : MPEG-4 Visual
Параметр BVOP формата : 1
Параметр QPel формата : Нет
Параметр GMC формата : Без точки перехода
Параметр матрицы формата : Default (H.263)
Режим смешивания : Сжатый битовый поток
Идентификатор кодека : DX50
Идентификатор кодека/Подсказка : DivX 5
Продолжительность : 1 ч. 22 м.
Битрейт : 2175 Кбит/сек
Ширина : 688 пикс.
Высота : 288 пикс.
Соотношение сторон : 2,40:1
Частота кадров : 25,000 кадр/сек
Цветовое пространство : YUV
Подвыборка цветности : 4:2:0
Битовая глубина : 8 бит
Тип развёртки : Прогрессивная
Метод сжатия : С потерями
Бит/(Пиксели*Кадры) : 0.439
Размер потока : 1,25 Гбайт (92%)
Библиотека кодирования : DivX 6.8.2 (UTC 2008-05-17)
Аудио
Идентификатор : 1
Формат : AC-3
Формат/Информация : Audio Coding 3
Расширение режима : CM (complete main)
Идентификатор кодека : 2000
Продолжительность : 1 ч. 22 м.
Вид битрейта : Постоянный
Битрейт : 192 Кбит/сек
Каналы : 2 канала
Расположение каналов : Front: L R
Частота : 48,0 КГц
Битовая глубина : 16 бит
Метод сжатия : С потерями
Размер потока : 113 Мбайт (8%)
Выравнивание : Разделение по промежуткам
Продолжительность промежутка : 40 мс. (1,00 видеокадр)
Время предзагрузки промежутка : 500 ms
Источник/Качество: DVDRip
Формат: AVI
Видео кодек: DivX
Аудио кодек: AC3
Видео: 688x288 (2.39:1), 25 fps, DivX Codec 6.8.2 ~2174 kbps avg, 0.44 bit/pixel
Аудио: 48 kHz, AC3 Dolby Digital, 2/0 (L,R) ch, ~192 kbps



Download / Скачать

Хотите скачать бесплатно? Зарегистрируйтесь на сайте (ссылка на регистрацию). Pirat.ca - самый быстрый торрент трекер в рунете!

Как скачивать  ·   Что такое торрент  ·   Рейтинг и ограничения



Последний раз редактировалось: kufre (2011-12-01 12:51), всего редактировалось 2 раз(а)

Пост 04-Ноя-2011 00:36 (спустя 48 минут)

Топик был перенесен из форума Наше Кино в форум Советское кино

Skinwalker
 

Luzhok

Легенда

Пост 04-Ноя-2011 13:26 (спустя 13 часов)

[Q] 

kufre,
спасибо
[Профиль]  [ЛС] 

Pesok

Гроза морей

Пост 16-Ноя-2011 21:10 (спустя 12 дней)

[Q] 

Спасибо! Как раз этого фильма и не было у меня в библиотеке супер советских фильмов! буду раздавать долго

_________________
[Профиль]  [ЛС] 

veter510

Флибустьер

Пост 31-Окт-2012 22:27 (спустя 11 месяцев 15 дней)

[Q] 

Нда, видать за год раздача умерла.... ac
[Профиль]  [ЛС] 

veter510

Флибустьер

Пост 01-Ноя-2012 00:31 (спустя 2 часа 3 минуты)

[Q] 

Luzhok, благодарю за фильм!
[Профиль]  [ЛС] 

Luzhok

Легенда

Пост 01-Ноя-2012 06:13 (спустя 5 часов)

[Q] 

veter510
был рад помочь
[Профиль]  [ЛС] 

veter510

Флибустьер

Пост 01-Ноя-2012 13:03 (спустя 6 часов)

[Q] 

Буду на раздаче, пока возможно и в меру моих сил и времени... bs
[Профиль]  [ЛС] 

LORD OR

Корсар

Пост 12-Ноя-2012 21:48 (спустя 11 дней)

[Q] 

[Профиль]  [ЛС] 

Luzhok

Легенда

Пост 12-Ноя-2012 21:58 (спустя 10 минут)

[Q] 

veter510
благодарю, камрад, что держишь слово
у меня в последнее время технические проблемы с поддержкой, так что...
[Профиль]  [ЛС] 

Димарик82

Корсар

725

Пост 15-Ноя-2012 00:44 (спустя 2 дня 2 часа)

[Q] 

[Профиль]  [ЛС] 

lebonnet

Флибустьер

Пост 19-Ноя-2012 18:28 (спустя 4 дня)

[Q] 

[Профиль]  [ЛС] 

veter510

Флибустьер

Пост 22-Ноя-2012 04:41 (спустя 2 дня 10 часов)

[Q] 

Luzhok, слово надо держать! Так что, пока могу - раздаю! ad
[Профиль]  [ЛС] 

keppi

Морской Волк

1896

Пост 10-Янв-2013 23:18 (спустя 1 месяц 18 дней)

[Q] 


_________________
Если нет своей цели в жизни, то будешь работать на того, у кого она есть.
[Профиль]  [ЛС] 
Показать сообщения:    
Ответить на тему

Текущее время: Сегодня 06:18

Часовой пояс: GMT + 4



Вы не можете начинать темы
Вы не можете отвечать на сообщения
Вы не можете редактировать свои сообщения
Вы не можете удалять свои сообщения
Вы не можете голосовать в опросах
Вы не можете прикреплять файлы к сообщениям
Вы не можете скачивать файлы

▼ Вниз