ML
     
  Уважаемый Гость!
Вы можете поддержать проект и зарегистрироваться у наших партнеров - онлайн-стратегия MyLands. При регистрации в игре Вы получите код, который сможете активировать после регистрации на pirat.ca и получить 1000 дублонов.

Ваш код:
b70663c760e7cd2521b8e123786cdd788200e3bd
 
     

Суворов (Всеволод Пудовкин, Михаил Доллер) [1940г., историко-биографический, DVDRip]

Ответить на тему
 
Автор
Сообщение

Пост 04-Ноя-2011 19:15

[Q] 

K-0-t

Морской Волк

Суворов
Год выпуска: 1940
Страна: СССР (Мосфильм)
Жанр: Историко-биографический
Продолжительность: 01:41:18
Режиссер: Всеволод Пудовкин, Михаил Доллер
В ролях:
* Николай Черкасов (Черкасов-Сергеев) — Суворов
* Аполлон Ячницкий — Павел I
* Михаил Астангов — граф Аракчеев
* Сергей Килигин — Багратион
* Всеволод Аксёнов — Мещерский
* Александр Ханов — Платоныч
* Георгий Ковров — Прохор
* Александр Антонов — Тюрин
* Александр Смирнов — князь Горчаков
* Владимир Дорофеев — Авдеич
* Анатолий Соловьёв — Синица
* Галина Кравченко — Лопухина
* Александр Пелевин — полковник Тур
Описание: Фельдмаршал Суворов - гений военного искусства, написавший книгу «Наука побеждать» и своими победами доказавший ее положения. Но у императора Павла I совсем другие взгляды на обустройство, организацию и уставы русской армии. За дерзость и неповиновение фельдмаршал сослан в ссылку в село Кончанское. Для него настали тяжёлые времена опалы. Но России и солдатам нужен их любимый командир. В 1799 году создается 2-я антифранцузская коалиция, и его назначают главнокомандующим. Он принимает войска в своё распоряжение и отправляется в Итальянский поход только с одной задачей - побеждать. Впереди русское войско ждут Альпы.
Доп. информация: Награды
Сталинские премии (1941) — режиссёрам Пудовкину и Доллеру, а также актёрам Ливанову, Ханову, Черкасову-Сергееву за фильмы «Суворов», «Минин и Пожарский».
Источник/Качество: DVDRip
Формат: AVI
Видео кодек: XviD
Аудио кодек: AC3
Видео: 720х544 (1.32:1), 25 fps, XviD build 47, 1672 kbps avg, 0.17 bit/pixel
Аудио: 48KHz, AC3 Dolby Digital, 2/0 (L,R) ch, 256 Kbps
General
Complete name : E:\Фильмы\Художественные\Отечественные фильмы\Военно-исторические\Suvorov_[pirat.ca].avi
Format : AVI
Format/Info : Audio Video Interleave
File size : 1.37 GiB
Duration : 1h 41mn
Overall bit rate : 1 935 Kbps
Writing application : VirtualDubMod 1.5.4.1 (build 2178/release)
Writing library : VirtualDubMod build 2178/release
Video
ID : 0
Format : MPEG-4 Visual
Format profile : [email protected]
Format settings, BVOP : Yes
Format settings, QPel : No
Format settings, GMC : No warppoints
Format settings, Matrix : Custom
Codec ID : XVID
Codec ID/Hint : XviD
Duration : 1h 41mn
Bit rate : 1 672 Kbps
Width : 720 pixels
Height : 544 pixels
Display aspect ratio : 4:3
Frame rate : 25.000 fps
Resolution : 24 bits
Colorimetry : 4:2:0
Scan type : Progressive
Bits/(Pixel*Frame) : 0.171
Stream size : 1.18 GiB (86%)
Writing library : XviD 1.2.0.dev47 (UTC 2006-11-01)
Audio
ID : 1
Format : AC-3
Format/Info : Audio Coding 3
Codec ID : 2000
Duration : 1h 41mn
Bit rate mode : Constant
Bit rate : 256 Kbps
Channel(s) : 2 channels
Channel positions : L R
Sampling rate : 48.0 KHz
Stream size : 185 MiB (13%)
Alignment : Split accross interleaves
Interleave, duration : 96 ms (2.40 video frames)
Interleave, preload duration : 96 ms
Language : Russian
Download / Скачать

Хотите скачать бесплатно? Зарегистрируйтесь на сайте (ссылка на регистрацию). Pirat.ca - самый быстрый торрент трекер в рунете!

Как скачивать  ·   Что такое торрент  ·   Рейтинг и ограничения



Последний раз редактировалось: K-0-t (2011-11-06 23:59), всего редактировалось 2 раз(а)

Пост 04-Ноя-2011 23:12 (спустя 3 часа)

Топик был перенесен из форума Наше Кино в форум Советское кино

Skinwalker
 

Filimonia

Корсар

Пост 07-Ноя-2011 01:15 (спустя 2 дня 6 часов)

[Q] 

Спасибо за замечательный Фильм!
[Профиль]  [ЛС] 

Фисташка

Пост 15-Авг-2012 11:52 (спустя 9 месяцев 8 дней)

[Q] 

спасибо за хороший фильм!.
[Профиль]  [ЛС] 

viktor41

Шкипер

Пост 30-Окт-2013 20:33 (спустя 1 год 2 месяца)

[Q] 

K-0-t, Спасибо за замечательный Фильм! Автору респект!!!
[Профиль]  [ЛС] 
Показать сообщения:    
Ответить на тему

Текущее время: Сегодня 00:21

Часовой пояс: GMT + 4



Вы не можете начинать темы
Вы не можете отвечать на сообщения
Вы не можете редактировать свои сообщения
Вы не можете удалять свои сообщения
Вы не можете голосовать в опросах
Вы не можете прикреплять файлы к сообщениям
Вы не можете скачивать файлы

▼ Вниз