ML
     
  Уважаемый Гость!
Вы можете поддержать проект и зарегистрироваться у наших партнеров - онлайн-стратегия MyLands. При регистрации в игре Вы получите код, который сможете активировать после регистрации на pirat.ca и получить 1000 дублонов.

Ваш код:
4fbd9898b6f10799a3e8edf60f31febd2bc15453
 
     

Кутузов (Владимир Петров) [1943г., Исторический фильм, DVDRip]

Ответить на тему
 
Автор
Сообщение

Пост 04-Ноя-2011 20:42

[Q] 

K-0-t

Морской Волк

Кутузов
Год выпуска: 1943
Страна: СССР
Жанр: Исторический фильм
Продолжительность: 01:42:49
Режиссер: Владимир Петров
В ролях:
Алексей Дикий — Кутузов
Николай Охлопков — Барклай-де-Толи
Серго Закариадзе — Багратион
Владимир Готовцев — генерал Беннигсен, начальник штаба русской армии
Николай Рыжов — Волконский
Семён Межинский — Наполеон
Евгений Калужский — маршал Бертье
Николай Бриллинг — маршал Мюрат
Аркадий Поляков — маршал Даву
Н. Тимченко — император Александр I
Сергей Блинников — атаман Платов
Борис Чирков — Денис Давыдов
Владимир Ершов — Бекетов
Иван Скуратов — Жестянников
Михаил Пуговкин — солдат Федя
Александра Данилова — Василиса, старостиха
Владимир Уральский — генерал
Мария Яроцкая — крестьянка
Михаил Садовский — эпизод
Описание: Фильм охватывает события войны 1812 года и рассказывает о личности Михаила Илларионовича Кутузова, светлейшего князя Смоленского — русского полководца, фельдмаршала, ученика А. В. Суворова.
Доп. информация: Вступление Наполеона в Россию, Бородинское сражение, пожар Москвы, Тарутинский маневр, партизанская война и, наконец, бегство французской армии из России - все главные эпизоды Отечественной войны 1812 года в историческом фильме, посвященном великому русскому полководцу Михаилу Илларионовичу Кутузову и его соратникам. Кутузов не сочувствовал перенесению войны за пределы России; по его убеждению русская кровь не должна была проливаться за освобождение Европы. Кутузов обладал ясным и тонким умом, твердой волей, глубокими военными познаниями и обширным боевым опытом. Как стратег, он всегда старался изучить своего противника, умел учесть все элементы обстановки и неуклонно стремился к достижению намеченной цели. Равновесие его ясного ума и неуклонной воли никогда не нарушалось. Он понимал натуру русского солдата, умел поднимать его дух и пользовался безграничным доверием своих подчиненных.
Источник/Качество: DVDRip
Формат: AVI
Видео кодек: XviD
Аудио кодек: AC3
Видео: 720x544, 25 fps, XviD build 47, 1643 kbps avg, 0.17 bit/pixel
Аудио: 48 kHz, AC3 Dolby Digital, 2/0 (L,R) ch, 256 kbps
General
Complete name : E:\Фильмы\Художественные\Отечественные фильмы\Военно-исторические\Кутузов (Мосфильм, 1943г.)[pirat.ca].avi
Format : AVI
Format/Info : Audio Video Interleave
File size : 1.37 GiB
Duration : 1h 42mn
Overall bit rate : 1 906 Kbps
Writing application : VirtualDubMod 1.5.4.1 (build 2178/release)
Writing library : VirtualDubMod build 2178/release
Video
ID : 0
Format : MPEG-4 Visual
Format profile : [email protected]
Format settings, BVOP : Yes
Format settings, QPel : No
Format settings, GMC : No warppoints
Format settings, Matrix : Custom
Codec ID : XVID
Codec ID/Hint : XviD
Duration : 1h 42mn
Bit rate : 1 643 Kbps
Width : 720 pixels
Height : 544 pixels
Display aspect ratio : 4:3
Frame rate : 25.000 fps
Resolution : 24 bits
Colorimetry : 4:2:0
Scan type : Progressive
Bits/(Pixel*Frame) : 0.168
Stream size : 1.18 GiB (86%)
Writing library : XviD 1.2.0.dev47 (UTC 2006-11-01)
Audio
ID : 1
Format : AC-3
Format/Info : Audio Coding 3
Codec ID : 2000
Duration : 1h 42mn
Bit rate mode : Constant
Bit rate : 256 Kbps
Channel(s) : 2 channels
Channel positions : L R
Sampling rate : 48.0 KHz
Stream size : 188 MiB (13%)
Alignment : Split accross interleaves
Interleave, duration : 96 ms (2.40 video frames)
Interleave, preload duration : 96 ms
Language : Russian
Download / Скачать

Хотите скачать бесплатно? Зарегистрируйтесь на сайте (ссылка на регистрацию). Pirat.ca - самый быстрый торрент трекер в рунете!

Как скачивать  ·   Что такое торрент  ·   Рейтинг и ограничения



Последний раз редактировалось: K-0-t (2011-11-06 23:58), всего редактировалось 2 раз(а)

Пост 04-Ноя-2011 23:13 (спустя 2 часа 30 минут)

Топик был перенесен из форума Наше Кино в форум Советское кино

Skinwalker
 

Filimonia

Корсар

Пост 07-Ноя-2011 01:12 (спустя 2 дня 4 часа)

[Q] 

Спасибо за хороший фильм!
[Профиль]  [ЛС] 

Фисташка

Пост 15-Авг-2012 11:51 (спустя 9 месяцев 8 дней)

[Q] 

.
[Профиль]  [ЛС] 

R_O_Z_A

Морской Волк

Пост 26-Фев-2015 22:37 (спустя 2 года 6 месяцев)

[Q] 

Спасибо!!! Супер! :
[Профиль]  [ЛС] 

Семен

Морской Волк

Пост 25-Мар-2015 20:48 (спустя 26 дней)

[Q] 

Не смотрел. Надо оценить. 43-й год!??? Не думал что время ВОВ снимали Спасибо!!!
[Профиль]  [ЛС] 
Показать сообщения:    
Ответить на тему

Текущее время: Сегодня 19:59

Часовой пояс: GMT + 4



Вы не можете начинать темы
Вы не можете отвечать на сообщения
Вы не можете редактировать свои сообщения
Вы не можете удалять свои сообщения
Вы не можете голосовать в опросах
Вы не можете прикреплять файлы к сообщениям
Вы не можете скачивать файлы

▼ Вниз