ML
     
  Уважаемый Гость!
Вы можете поддержать проект и зарегистрироваться у наших партнеров - онлайн-стратегия MyLands. При регистрации в игре Вы получите код, который сможете активировать после регистрации на pirat.ca и получить 1000 дублонов.

Ваш код:
b70663c760e7cd2521b8e123786cdd788200e3bd
 
     

Пираты ХХ века (Борис Дуров) [1979 г., боевик, триллер, приключения, DVDRip]

Ответить на тему
 
Автор
Сообщение

Пост 05-Ноя-2011 00:05

[Q] 

kufre

Корсар

Пираты ХХ века
Год выпуска: 1979
Жанр: боевик, триллер, приключения
Продолжительность: 01:19:53
Режиссер: Борис Дуров
В ролях: Николай Еременко, Петр Вельяминов, Талгат Нигматулин, Рейно Арен, Диларом Камбарова, Наталья Харахорина, Джигангир Шахмурадов, Юрий Кутырев, Тадеуш Касьянов, Майя Эглите, Виктор Жиганов, Георгий Мартиросян, Леонид Трутнев, Владимир Епископосян
Описание: Советский сухогрузный корабль перевозил большой груз опиума для фармакологической промышленности. Современные пираты, охотившиеся за ценным грузом, коварством завладели кораблем и экипажем.
Чтобы не осталось свидетелей этого разбойного нападения, пираты попытались уничтожить всю команду корабля. В океанских просторах разыгралась напряженная борьба между горсткой советских моряков и современными разбойниками, не знающими пощады.
Доп. информация: После первого закрытого показа в ЦК ВЛКСМ фильм обругали и почти отправили «на полку», пока один из сотрудников Особого отдела Госкино СССР (где занимались обслуживанием культурного досуга членов Политбюро и прочих партийных деятелей) не отправил копию фильма на дачу к тогдашнему Генеральному секретарю ЦК КПСС Л.И Брежневу… Генсек пришел в неописуемые восторг от увиденного, и широкий прокат не заставил себя долго ждать…
Утренние сеансы в будние дни часто приходилось отменять — школьники целыми классами сбегали с уроков на просмотр «Пиратов».
Режиссер фильма сначала отказался утвердить Николая Еременко на главную роль, но после того как Николай продемонстрировал свою физподготовку, сделав впечатляющее сальто и показав хорошо развитую мускулатуру, актер сразу же был утвержден на роль.
Во время съемок Еременко активно занимался с тренером по карате.
В одном из эпизодов фильма (прыжок со скалы на крышу теплохода), актер прыгал в воду рядом с бортом корабля. Во время всплытия Николай Еременко чуть не попал под работающие винты корабля, который проходил прямо над ним. Актеру чудом удалось отплыть на безопасное расстояние от винтов.
В советском прокате фильм посмотрели 90 млн. зрителей.
У Николая Еременко в начале 90-х годов была идея снять сиквел «Пиратов», но тогда, во времена глубокого кризиса отечественного кинематографа, не нашлось достойного финансирования картины. Второй раз к этой идее Еременко вернулся в 1998 году, но тогда помешал внезапно начавшийся экономический кризис в России…
Фильм снят на основе реальных событий.
Занимает по посещаемости 1-е место среди отечественных фильмов за всю историю советского кинопроката.
Полное имя : I:\ШАРА\ВИДЕО\ФИЛЬМЫ\НАШЕ\Пираты ХХ века.avi
Формат : AVI
Формат/Информация : Audio Video Interleave
Размер файла : 748 Мбайт
Продолжительность : 1 ч. 19 м.
Общий поток : 1309 Кбит/сек
Видео
Идентификатор : 0
Формат : MPEG-4 Visual
Профиль формата : [email protected]
Параметр BVOP формата : Нет
Параметр QPel формата : Нет
Параметр GMC формата : Без точки перехода
Параметр матрицы формата : Default (H.263)
Идентификатор кодека : XVID
Идентификатор кодека/Подсказка : XviD
Продолжительность : 1 ч. 19 м.
Битрейт : 1200 Кбит/сек
Ширина : 720 пикс.
Высота : 576 пикс.
Соотношение сторон : 5:4
Частота кадров : 25,000 кадр/сек
Стандарт вещания : PAL
Цветовое пространство : YUV
Подвыборка цветности : 4:2:0
Битовая глубина : 8 бит
Тип развёртки : Прогрессивная
Метод сжатия : С потерями
Бит/(Пиксели*Кадры) : 0.116
Размер потока : 686 Мбайт (92%)
Библиотека кодирования : XviD 1.1.0 Beta2 (UTC 2005-04-04)
Аудио
Идентификатор : 1
Формат : MPEG Audio
Версия формата : Version 1
Профиль формата : Layer 3
Режим : Joint stereo
Расширение режима : MS Stereo
Идентификатор кодека : 55
Идентификатор кодека/Подсказка : MP3
Продолжительность : 1 ч. 19 м.
Вид битрейта : Постоянный
Битрейт : 96,0 Кбит/сек
Каналы : 2 канала
Частота : 48,0 КГц
Метод сжатия : С потерями
Размер потока : 54,9 Мбайт (7%)
Выравнивание : Соединение по промежуткам
Продолжительность промежутка : 24 мс. (0,60 видеокадр)
Время предзагрузки промежутка : 24 ms
Библиотека кодирования : LAME3.96.1
Источник/Качество: DVDRip
Формат: AVI
Видео кодек: XviD
Аудио кодек: MP3
Видео: 720x576 (1.25:1), 25 fps, XviD 1.1 beta 2 (build 39) ~1294 kbps avg, 0.12 bit/pixel
Аудио: 48 kHz, MPEG Layer 3, 2 ch, ~96.00 kbps avg





Download / Скачать

Хотите скачать бесплатно? Зарегистрируйтесь на сайте (ссылка на регистрацию). Pirat.ca - самый быстрый торрент трекер в рунете!

Как скачивать  ·   Что такое торрент  ·   Рейтинг и ограничения



Последний раз редактировалось: kufre (2011-11-21 19:01), всего редактировалось 2 раз(а)

Пост 05-Ноя-2011 17:16 (спустя 17 часов)

Топик был перенесен из форума Основной кинофонд (1970 г. - 1999 г.) в форум Советское кино

Чужая
 

Pesok

Гроза морей

Пост 16-Ноя-2011 21:08 (спустя 11 дней)

[Q] 

Спасибо! Как раз этого фильма и не было у меня в библиотеке супер советских фильмов!

_________________
[Профиль]  [ЛС] 

AndyFox

Корсар

376

Пост 21-Ноя-2012 12:54 (спустя 1 год)

[Q] 

Фильм снят на основе реальных событий.
Особенно концовка... =)

_________________
Torrent.
[Профиль]  [ЛС] 
Показать сообщения:    
Ответить на тему

Текущее время: Сегодня 00:18

Часовой пояс: GMT + 4



Вы не можете начинать темы
Вы не можете отвечать на сообщения
Вы не можете редактировать свои сообщения
Вы не можете удалять свои сообщения
Вы не можете голосовать в опросах
Вы не можете прикреплять файлы к сообщениям
Вы не можете скачивать файлы

▼ Вниз