ML
     
  Уважаемый Гость!
Вы можете поддержать проект и зарегистрироваться у наших партнеров - онлайн-стратегия MyLands. При регистрации в игре Вы получите код, который сможете активировать после регистрации на pirat.ca и получить 1000 дублонов.

Ваш код:
ba41f7961e0b4717aed6a401d955262223b8f6c4
 
     

Маленькое одолжение (Борис Конунов) [1984 г., Драма, DVDRip]

Ответить на тему
 
Автор
Сообщение

Пост 05-Ноя-2011 13:52

[Q] 

oldzren

Шкипер

Маленькое одолжение
Год выпуска: 1984
Жанр: Драма
Продолжительность: 01:16:07
Режиссер: Борис Конунов
В ролях: Николай Караченцов, Лия Ахеджакова, Татьяна Догилева, Людмила Иванова, Елена Костина, Haтaлья Caйкo
Описание: Однажды известный эстрадный певец Валентин Озерников, вернувшись из очередной гастрольной поездки, задумался над быстротекущей жизнью и попытался сформулировать себе нравственные критерии дальнейшего существования…
Источник/Качество: DVDRip
Формат: AVI
Видео кодек: XviD
Аудио кодек: MP3
Видео: 688x512 (1.34:1), 29.970 fps, XviD MPEG-4 ~2458 kbps avg, 0.23 bit/pixel
Аудио: 44.100 kHz, MPEG Layer 3, 2 ch, ~192.00 kbps avg
General
Format : AVI
Format/Info : Audio Video Interleave
File size : 1.37 GiB
Duration : 1h 16mn
Overall bit rate : 2 571 Kbps
Writing application : VirtualDubMod 1.5.4.1 (build 2178/release)
Writing library : VirtualDubMod build 2178/release
Video
ID : 0
Format : MPEG-4 Visual
Format profile : Advanced [email protected]
Format settings, BVOP : 1
Format settings, QPel : No
Format settings, GMC : No warppoints
Format settings, Matrix : Custom
Codec ID : XVID
Codec ID/Hint : XviD
Duration : 1h 16mn
Bit rate : 2 370 Kbps
Width : 688 pixels
Height : 512 pixels
Display aspect ratio : 4:3
Frame rate : 29.970 fps
Color space : YUV
Chroma subsampling : 4:2:0
Bit depth : 8 bits
Scan type : Progressive
Compression mode : Lossy
Bits/(Pixel*Frame) : 0.225
Stream size : 1.26 GiB (92%)
Writing library : XviD 1.2.1 (UTC 2008-12-04)
Audio
ID : 1
Format : MPEG Audio
Format version : Version 1
Format profile : Layer 3
Mode : Joint stereo
Mode extension : MS Stereo
Codec ID : 55
Codec ID/Hint : MP3
Duration : 1h 16mn
Bit rate mode : Constant
Bit rate : 192 Kbps
Channel(s) : 2 channels
Sampling rate : 44.1 KHz
Compression mode : Lossy
Stream size : 105 MiB (7%)
Alignment : Split accross interleaves
Interleave, duration : 67 ms (2.00 video frames)
Interleave, preload duration : 500 ms









Download / Скачать

Хотите скачать бесплатно? Зарегистрируйтесь на сайте (ссылка на регистрацию). Pirat.ca - самый быстрый торрент трекер в рунете!

Как скачивать  ·   Что такое торрент  ·   Рейтинг и ограничения



Последний раз редактировалось: oldzren (2011-11-07 16:23), всего редактировалось 2 раз(а)

Пост 05-Ноя-2011 18:50 (спустя 4 часа)

Топик был перенесен из форума Наше Кино в форум Советское кино

Skinwalker
 

oldzren ®

Шкипер

184

Пост 07-Ноя-2011 13:49 (спустя 1 день 23 часа)

[Q] 

Раздача восстановлена.

_________________
[Профиль]  [ЛС] 

Фисташка

Пост 15-Авг-2012 11:53 (спустя 9 месяцев 7 дней)

[Q] 

.
[Профиль]  [ЛС] 
Показать сообщения:    
Ответить на тему

Текущее время: Сегодня 14:44

Часовой пояс: GMT + 4



Вы не можете начинать темы
Вы не можете отвечать на сообщения
Вы не можете редактировать свои сообщения
Вы не можете удалять свои сообщения
Вы не можете голосовать в опросах
Вы не можете прикреплять файлы к сообщениям
Вы не можете скачивать файлы

▼ Вниз