ML
     
  Уважаемый Гость!
Вы можете поддержать проект и зарегистрироваться у наших партнеров - онлайн-стратегия MyLands. При регистрации в игре Вы получите код, который сможете активировать после регистрации на pirat.ca и получить 1000 дублонов.

Ваш код:
73640f24f8a0f579e128ea7346fd2db2b1009143
 
     

Опасно для жизни! (Леонид Гайдай) [1985 г., комедия, DVDRip]

Ответить на тему
 
Автор
Сообщение

Пост 05-Ноя-2011 14:14

[Q] 

kufre

Корсар

Опасно для жизни!
Год выпуска: 1985
Жанр: комедия
Продолжительность: 01:27:46
Режиссер: Леонид Гайдай
В ролях: Леонид Куравлев, Лариса Удовиченко, Татьяна Кравченко, Георгий Вицин, Тамаз Толорая, Нина Гребешкова, Борислав Брондуков, Владимир Носик, Михаил Кокшенов, Сергей Филиппов, Нина Маслова, Муза Крепкогорская, Андрей Гусев, Лев Поляков, Максим Раевский
Описание: Спартак Молодцов — человек предельно аккуратный, непримиримый к любому беспорядку. Обнаружив однажды оборванный провод высоковольтной линии, он, разумеется, не мог пройти мимо. Но, как известно, «ни одно доброе дело не остается безнаказанным» — теперь Спартак опаздывает на работу, любимая сестра собирается съехать, а невероятно активный грузин старается ввернуть ему взятку. Тем более, чинить провод никто и не собирается…
Полное имя : F:\ШАРА F\ФИЛЬМЫ\НАШЕ\Опасно для жизни! (1985).avi
Формат : AVI
Формат/Информация : Audio Video Interleave
Размер файла : 1,37 Гбайт
Продолжительность : 1 ч. 27 м.
Общий поток : 2236 Кбит/сек
Программа кодирования : VirtualDubMod 1.5.10.2 (build 2540/release)
Библиотека кодирования : VirtualDubMod build 2540/release
Видео
Идентификатор : 0
Формат : MPEG-4 Visual
Профиль формата : Advanced [email protected]
Параметр BVOP формата : 2
Параметр QPel формата : Нет
Параметр GMC формата : Без точки перехода
Параметр матрицы формата : Default (H.263)
Режим смешивания : Сжатый битовый поток
Идентификатор кодека : XVID
Идентификатор кодека/Подсказка : XviD
Продолжительность : 1 ч. 27 м.
Битрейт : 2034 Кбит/сек
Ширина : 640 пикс.
Высота : 320 пикс.
Соотношение сторон : 2,000
Частота кадров : 25,000 кадр/сек
Цветовое пространство : YUV
Подвыборка цветности : 4:2:0
Битовая глубина : 8 бит
Тип развёртки : Прогрессивная
Метод сжатия : С потерями
Бит/(Пиксели*Кадры) : 0.397
Размер потока : 1,25 Гбайт (91%)
Библиотека кодирования : XviD 1.1.2 (UTC 2006-11-01)
Аудио
Идентификатор : 1
Формат : AC-3
Формат/Информация : Audio Coding 3
Расширение режима : CM (complete main)
Идентификатор кодека : 2000
Продолжительность : 1 ч. 27 м.
Вид битрейта : Постоянный
Битрейт : 192 Кбит/сек
Каналы : 2 канала
Расположение каналов : Front: L R
Частота : 48,0 КГц
Битовая глубина : 16 бит
Метод сжатия : С потерями
Размер потока : 121 Мбайт (9%)
Выравнивание : Разделение по промежуткам
Продолжительность промежутка : 40 мс. (1,00 видеокадр)
Время предзагрузки промежутка : 500 ms
Источник/Качество: DVDRip
Формат: AVI
Видео кодек: XviD
Аудио кодек: AC3
Видео: 640x320 (2.00:1), 25 fps, XviD MPEG-4 ~2034 kbps avg, 0.40 bit/pixel
Аудио: 48 kHz, AC3 Dolby Digital, 2/0 (L,R) ch, ~192 kbps





Download / Скачать

Хотите скачать бесплатно? Зарегистрируйтесь на сайте (ссылка на регистрацию). Pirat.ca - самый быстрый торрент трекер в рунете!

Как скачивать  ·   Что такое торрент  ·   Рейтинг и ограничения



Последний раз редактировалось: kufre (2011-11-16 20:45), всего редактировалось 1 раз

Пост 05-Ноя-2011 18:51 (спустя 4 часа)

Топик был перенесен из форума Наше Кино в форум Советское кино

Skinwalker
 

Pesok

Гроза морей

Пост 16-Ноя-2011 21:08 (спустя 11 дней)

[Q] 

Спасибо! Как раз этого фильма и не было у меня в библиотеке супер советских фильмов! респект!!!

_________________
[Профиль]  [ЛС] 

CHARLI2236

1089

Пост 13-Дек-2011 13:41 (спустя 26 дней)

[Q] 

спасибо

_________________
[Профиль]  [ЛС] 

Максим Качанов

Лоцман

Пост 01-Май-2012 09:50 (спустя 4 месяца 17 дней)

[Q] 

[Профиль]  [ЛС] 

abc7

Гроза морей

464

Пост 03-Май-2012 00:30 (спустя 1 день 14 часов)

[Q] 

[Профиль]  [ЛС] 

zuum

Штурман

Пост 11-Июн-2012 16:00 (спустя 1 месяц 8 дней)

[Q] 

фильм класс!!!
[Профиль]  [ЛС] 

PaulCONS

Лоцман

Пост 29-Авг-2012 21:16 (спустя 2 месяца 18 дней)

[Q] 

А где же сиды? :)
[Профиль]  [ЛС] 

LORD OR

Корсар

Пост 12-Ноя-2012 21:49 (спустя 2 месяца 14 дней)

[Q] 

[Профиль]  [ЛС] 

keppi

Морской Волк

1896

Пост 10-Янв-2013 23:14 (спустя 1 месяц 28 дней)

[Q] 


_________________
Если нет своей цели в жизни, то будешь работать на того, у кого она есть.
[Профиль]  [ЛС] 

Djiguly

Корсар

102

Пост 26-Янв-2013 15:33 (спустя 15 дней)

[Q] 

Леонид Вячеславович Куравлёв.(АФОНЯ).
Шедевр отечественного кинематографа.

_________________
Djiguly
[Профиль]  [ЛС] 

UncleFather

Легенда

Пост 16-Мар-2013 09:25 (спустя 1 месяц 20 дней)

[Q] 


_________________
Одни боялись Пью, другие - Билли Бонса, а меня... меня боялся сам Флинт
[Профиль]  [ЛС] 
Показать сообщения:    
Ответить на тему

Текущее время: Сегодня 22:37

Часовой пояс: GMT + 4



Вы не можете начинать темы
Вы не можете отвечать на сообщения
Вы не можете редактировать свои сообщения
Вы не можете удалять свои сообщения
Вы не можете голосовать в опросах
Вы не можете прикреплять файлы к сообщениям
Вы не можете скачивать файлы

▼ Вниз