ML
     
  Уважаемый Гость!
Вы можете поддержать проект и зарегистрироваться у наших партнеров - онлайн-стратегия MyLands. При регистрации в игре Вы получите код, который сможете активировать после регистрации на pirat.ca и получить 1000 дублонов.

Ваш код:
e93cd9e43017f251127f220889864c05934e61c6
 
     

Формула любви (Марк Захаров) [1984 г., мелодрама, комедия, DVDRip]

Ответить на тему
 
Автор
Сообщение

Пост 06-Ноя-2011 03:19

[Q] 

kufre

Корсар

Формула любви
Год выпуска: 1984
Жанр: мелодрама, комедия
Продолжительность: 01:26:22
Режиссер: Марк Захаров
В ролях: Нодар Мгалоблишвили, Елена Валюшкина, Александр Михайлов, Елена Аминова, Александр Абдулов, Семен Фарада, Татьяна Пельтцер, Александра Захарова, Леонид Броневой, Николай Скоробогатов
Описание: Музыкальная комедия по мотивам повести Алексея Толстого «Граф Калиостро». В 1780 году Джузеппе Калиостро прибыл в Россию для представления высшей знати. Умыкнув под предлогом лечения отца юную Марью Ивановну, граф пытается влюбить в себя девицу, но безуспешно. В провинциальном поместье, где волею случая оказались путешественники, живет юноша, влюбленный в мраморную статую. С помощью Калиостро он надеется оживить мрамор, но встреча с живой Машей все меняет…
Доп. информация: Во время съёмок Нодар Мгалоблишвили сломал ногу, но замену актёру искать не стали, и он продолжил сниматься, хотя его нога была в гипсе.
Каменная фигура, о которой грезил один из героев фильма, «засветилась» в двух других советских комедиях. В «Старом новом годе» её в бане лицезреют герои Калягина и Невинного, а так же внимательный зритель её заметит на первом этаже офиса в «Служебном романе».
Сюжетная линия перемежается оригинальными танцевальными зарисовками. Танцоры выступают в красно-чёрных «карнавально-итальянских» (мужская часть) и русских народных (женская часть) костюмах. Состав группы: Н. Куломзина, Е. Афанасьева, И. Кривиченкова, С. Савельев, И. Бехтемиров, А. Живлюк, К. Гераскин, Б. Марьямов, М. Кудрявцев. Солист — Александр Куломзин.
Полное имя : I:\ШАРА\ВИДЕО\ФИЛЬМЫ\НАШЕ\Формула любви.avi
Формат : AVI
Формат/Информация : Audio Video Interleave
Размер файла : 1,37 Гбайт
Продолжительность : 1 ч. 26 м.
Общий поток : 2266 Кбит/сек
Название фильма : Lubovnaya.formula.rus.xvid.ac3.dvd-rip.from.DVD5.by.Wild.via.torrent.e2k.ru.by.soperedi
Кодирование произвёл : soperedi / soperedi
Дата мастеринга : 26-10-2005
Программа кодирования : VirtualDubMod 1.5.4.1 (build 2178/release) VirtualDubMod build 2178/release
Примечание : soperedi
Видео
Идентификатор : 0
Формат : MPEG-4 Visual
Профиль формата : Advanced [email protected]
Параметр BVOP формата : 1
Параметр QPel формата : Нет
Параметр GMC формата : Без точки перехода
Параметр матрицы формата : Default (H.263)
Режим смешивания : Сжатый битовый поток
Идентификатор кодека : XVID
Идентификатор кодека/Подсказка : XviD
Продолжительность : 1 ч. 26 м.
Битрейт : 1811 Кбит/сек
Ширина : 656 пикс.
Высота : 496 пикс.
Соотношение сторон : 4:3
Частота кадров : 25,000 кадр/сек
Цветовое пространство : YUV
Подвыборка цветности : 4:2:0
Битовая глубина : 8 бит
Тип развёртки : Прогрессивная
Метод сжатия : С потерями
Бит/(Пиксели*Кадры) : 0.223
Размер потока : 1,09 Гбайт (80%)
Библиотека кодирования : XviD 0039 build=2005.09.25 (UTC 2005-09-25)
Аудио
Идентификатор : 1
Формат : AC-3
Формат/Информация : Audio Coding 3
Расширение режима : CM (complete main)
Идентификатор кодека : 2000
Продолжительность : 1 ч. 26 м.
Вид битрейта : Постоянный
Битрейт : 448 Кбит/сек
Каналы : 6 каналов
Расположение каналов : Front: L C R, Side: L R, LFE
Частота : 48,0 КГц
Битовая глубина : 16 бит
Метод сжатия : С потерями
Задержка видео : 662 мс.
Размер потока : 277 Мбайт (20%)
Выравнивание : Разделение по промежуткам
Продолжительность промежутка : 80 мс. (2,00 видеокадра)
Время предзагрузки промежутка : 500 ms
Язык : Russian
Источник/Качество: DVDRip
Формат: AVI
Видео кодек: XviD
Аудио кодек: AC3
Видео: 656x496 (1.32:1), 25 fps, XviD MPEG-4 ~1811 kbps avg, 0.22 bit/pixel
Аудио: 48 kHz, AC3 Dolby Digital, 3/2 (L,C,R,l,r) + LFE ch, ~448 kbps



Download / Скачать

Хотите скачать бесплатно? Зарегистрируйтесь на сайте (ссылка на регистрацию). Pirat.ca - самый быстрый торрент трекер в рунете!

Как скачивать  ·   Что такое торрент  ·   Рейтинг и ограничения



Последний раз редактировалось: kufre (2011-11-16 20:49), всего редактировалось 1 раз

Пост 06-Ноя-2011 10:39 (спустя 7 часов)

Топик был перенесен из форума Наше Кино в форум Советское кино

Skinwalker
 

Pesok

Гроза морей

Пост 16-Ноя-2011 21:07 (спустя 10 дней)

[Q] 

Спасибо! Как раз этого фильма и не было у меня в библиотеке супер советских фильмов!

_________________
[Профиль]  [ЛС] 

Hausser

Гроза морей

Пост 29-Ноя-2011 23:02 (спустя 13 дней)

[Q] 

Отличный фильм на все времена, бесподобные фразы главных героев выше всяких похвал, качал для коллекции еще со старой пиратки.
[Профиль]  [ЛС] 

alenfr

Пост 04-Дек-2011 15:05 (спустя 4 дня)

[Q] 

Классика !!!!!!!!!!!!!супер фильм ))),огромное спасибо !!!!

_________________
Кто может — делает, кто не может — учит.
______________________________________
Держи порох сухим, а шпагу острой.
[Профиль]  [ЛС] 

Creed72

9779

Пост 03-Фев-2012 07:49 (спустя 1 месяц 29 дней)

[Q] 

kufre, Было бы просто замечательно, если бы Вы выложили все фильмы Марка Захарова.)
Обыкновенное чудо.
Тот самый Мюнхгаузен.
Убить дракона.
Дом который построил Свифт.
Именем земли и солнца.
Поминальная молитва.
Шут Балакирев.
Мудрец.
Варвар и еретик.

Спасибо.

_________________
Я мзду не беру. Мне за Державу обидно.(с)
[Профиль]  [ЛС] 

abc7

Гроза морей

464

Пост 05-Фев-2012 23:54 (спустя 2 дня 16 часов)

[Q] 

Hausser, +1
[Профиль]  [ЛС] 

ravinmtv

Морской Волк

Пост 07-Фев-2012 17:40 (спустя 1 день 17 часов)

[Q] 

[Профиль]  [ЛС] 

RIIDDIK

Шкипер

84

Пост 10-Фев-2012 11:36 (спустя 2 дня 17 часов)

[Q] 

[Профиль]  [ЛС] 

ksg111ban

Гроза морей

Пост 04-Мар-2012 22:01 (спустя 23 дня)

[Q] 

Да!!!Фильм на все времена

_________________
[Профиль]  [ЛС] 

CHARLI2236

1089

Пост 31-Май-2012 15:35 (спустя 2 месяца 26 дней)

[Q] 

благодарю

_________________
[Профиль]  [ЛС] 

Khramov

Лоцман

Пост 03-Окт-2012 20:24 (спустя 4 месяца 3 дня)

[Q] 

[Профиль]  [ЛС] 

Khramov

Лоцман

Пост 23-Окт-2012 21:36 (спустя 20 дней)

[Q] 

получил удовольствие от просмотра
[Профиль]  [ЛС] 

LORD OR

Корсар

Пост 12-Ноя-2012 21:47 (спустя 20 дней)

[Q] 

[Профиль]  [ЛС] 

ivan.tratil 67

Корсар

Пост 01-Янв-2013 21:35 (спустя 1 месяц 19 дней)

[Q] 

СПАСИБО
ДАВНО ХОТЕЛ ИМЕТЬ В СВОЕЙ КОЛЛЕКЦИИ
[Профиль]  [ЛС] 

and48

Корсар

169

Пост 02-Янв-2013 15:09 (спустя 17 часов)

[Q] 

Отличный фильм!
[Профиль]  [ЛС] 

Vintorezov REG 39

Легенда

176

Пост 29-Ноя-2014 12:47 (спустя 1 год 10 месяцев)

[Q] 

Замечательное кино спасибо .
[Профиль]  [ЛС] 
Показать сообщения:    
Ответить на тему

Текущее время: Сегодня 04:24

Часовой пояс: GMT + 4



Вы не можете начинать темы
Вы не можете отвечать на сообщения
Вы не можете редактировать свои сообщения
Вы не можете удалять свои сообщения
Вы не можете голосовать в опросах
Вы не можете прикреплять файлы к сообщениям
Вы не можете скачивать файлы

▼ Вниз