ML
     
  Уважаемый Гость!
Вы можете поддержать проект и зарегистрироваться у наших партнеров - онлайн-стратегия MyLands. При регистрации в игре Вы получите код, который сможете активировать после регистрации на pirat.ca и получить 1000 дублонов.

Ваш код:
fe4e93b754a7c2b306fcfc8bc32532ea1cf59d3b
 
     

Тайна "Черных дроздов" (Вадим Дербенев) [1983 г., Детектив, DVDRip]

Ответить на тему
 
Автор
Сообщение

Пост 06-Ноя-2011 22:56

[Q] 

cergo

Гроза морей

Тайна "Черных дроздов"

Год выпуска: 1983
Жанр: Детектив
Продолжительность: 01:32:09
Режиссер: Вадим Дербенев
В ролях: Ита Эвер, Владимир Седов, Андрей Харитонов, Любовь Полищук, Юрий Беляев, Елена Санаева, Наталья Данилова, Елена Ивочкина, Эльза Радзиня, Тамара Носова, Юрий Мороз, Ирина Мазуркевич, Владимир Зельдин, Борис Новиков, Мария Барабанова, Нина Агапова, Вероника Изотова, Александр Пятков, Алла Чернова, Лембит Ульфсак, Светлана Немоляева, Эрменгельд Коновалов
Описание: Глава богатого семейства мистер Джорж Фортескью отравлен. Инспектор Нил ведет расследование и узнает, что покойный был малоприятным человеком. Его смерть была выгодна всем членам семейства. Дело не простое, для отравления был использован редчайший яд. Насильственная смерть служанки Глэдис, а позже хозяйки дома Адель, окончательно запутывает расследование. Но в дело вмешивается мисс Марпл…
Снят по роману Агаты Кристи «Карман, полный ржи» (1953)
Источник/Качество: DVDRip
Формат: AVI
Видео кодек: XviD
Аудио кодек: AC3
Видео: 640x336 (1.90:1), 25 fps, XviD build 50 ~1731 kbps avg, 0.32 bit/pixel
Аудио: 48 kHz, AC3 Dolby Digital, 2/0 (L,R) ch, ~384 kbps
Формат : AVI
Формат/Информация : Audio Video Interleave
Размер файла : 1,37 Гбайт
Продолжительность : 1 ч. 32 м.
Общий поток : 2125 Кбит/сек
Программа кодирования : VirtualDubMod 1.5.10.3 | www.virtualdub-fr.org || (build 2550/release)
Библиотека кодирования : VirtualDubMod build 2550/release
Видео
Идентификатор : 0
Формат : MPEG-4 Visual
Профиль формата : Advanced [email protected]
Параметр BVOP формата : 2
Параметр QPel формата : Нет
Параметр GMC формата : Без точки перехода
Параметр матрицы формата : Default (MPEG)
Идентификатор кодека : XVID
Идентификатор кодека/Подсказка : XviD
Продолжительность : 1 ч. 32 м.
Битрейт : 1732 Кбит/сек
Ширина : 640 пикселей
Высота : 336 пикселей
Соотношение сторон : 1,905
Частота кадров : 25,000 кадров/сек
Цветовое пространство : YUV
Субдискретизация насыщенности : 4:2:0
Битовая глубина : 8 бит
Тип развёртки : Прогрессивная
Метод сжатия : С потерями
Бит/(Пиксели*Кадры) : 0.322
Размер потока : 1,11 Гбайт (81%)
Библиотека кодирования : XviD 1.2.1 (UTC 2008-12-04)
Аудио
Идентификатор : 1
Формат : AC-3
Формат/Информация : Audio Coding 3
Расширение режима : CM (complete main)
Идентификатор кодека : 2000
Продолжительность : 1 ч. 32 м.
Вид битрейта : Постоянный
Битрейт : 384 Кбит/сек
Каналы : 2 канала
Расположение каналов : Front: L R
Частота : 48,0 КГц
Битовая глубина : 16 бит
Метод сжатия : С потерями
Размер потока : 253 Мбайт (18%)
Выравнивание : Разделение по промежуткам
Продолжительность промежутка : 40 мс. (1,00 видеокадр)
Время предзагрузки промежутка : 500 мс.
Download / Скачать

Хотите скачать бесплатно? Зарегистрируйтесь на сайте (ссылка на регистрацию). Pirat.ca - самый быстрый торрент трекер в рунете!

Как скачивать  ·   Что такое торрент  ·   Рейтинг и ограничения



Последний раз редактировалось: cergo (2012-04-29 10:04), всего редактировалось 4 раз(а)

Пост 07-Ноя-2011 00:00 (спустя 1 час 4 минуты)

Топик был перенесен из форума Наше Кино в форум Советское кино

Skinwalker
 

bmf2000

Корсар

Пост 09-Мар-2012 10:59 (спустя 4 месяца 2 дня)

[Q] 

[Профиль]  [ЛС] 

Wolf111

57073

Пост 09-Янв-2013 17:47 (спустя 10 месяцев)

[Q] 

[Профиль]  [ЛС] 
Показать сообщения:    
Ответить на тему

Текущее время: Сегодня 14:27

Часовой пояс: GMT + 4



Вы не можете начинать темы
Вы не можете отвечать на сообщения
Вы не можете редактировать свои сообщения
Вы не можете удалять свои сообщения
Вы не можете голосовать в опросах
Вы не можете прикреплять файлы к сообщениям
Вы не можете скачивать файлы

▼ Вниз