ML
     
  Уважаемый Гость!
Вы можете поддержать проект и зарегистрироваться у наших партнеров - онлайн-стратегия MyLands. При регистрации в игре Вы получите код, который сможете активировать после регистрации на pirat.ca и получить 1000 дублонов.

Ваш код:
a01a592a88af5f9996a6d1baec61b18a1769954d
 
     

Д'артаньян и три мушкетёра, Мушкетёры 20 лет спустя, Мушкетёры 30 лет спустя (Георгий Юнгвальд-Хилькевич) [Приключения, DVDRip-AVC]

Ответить на тему
 
Автор
Сообщение

Пост 07-Ноя-2011 00:55

[Q] 

Sirleh

Лоцман

Д'артаньян и три мушкетёра Жанр: Приключения
Режиссер: Георгий Юнгвальд-Хилькевич
В ролях: Михаил Боярский, Вениамин Смехов, Валентин Смирнитский, Игорь Старыгин, Ирина Алфёрова, Алиса Фрейндлих, Олег Табаков, Лев Дуров, Маргарита Терехова, Александр Трофимов, Владимир Балон, Борис Клюев, Юрий Дубровин, Алексей Кузнецов, Леонид Каневский, Евгений Данчевский, Елена Цыплакова, Юрий Шерстнев, Виктор Павловский, Ольга Матешко, Сережа Васильев, Владимир Жариков, Иосиф Кринский, Геннадий Макоев, Анатолий Ходюшин, Валентина Клименко, Вячеслав Мышастый, Мария Ярыгина
Описание: Фильм снят по мотивам книг Александра Дюма "Три мушкетёра", "Двадцать лет спустя" и "Виконт де Бражелон".
Описание: Четверо друзей - мушкетеров спасают честь королевы Франции, вступают в единоборство со всесильным кардиналом Ришелье и коварной миледи, а главное - наслаждаются жизнью.
Год выпуска: 1979
Источник/Качество: DVDRip
Формат: MKV
Видео кодек: AVC
Аудио кодек: AC3
Видео: 720x586, 25 fps,AVC ~2000 kbps.
Аудио: 48 kHz, MPEG Layer 3, 2 ch, 384.00 kbps
1-я серия
Продолжительность: 01:25:22
2-я серия
Продолжительность: 01:32:12
3-я серия
Продолжительность: 01:11:00
Общее
Уникальный идентификатор : 233938785631289534978005596205740320445 (0xAFFEF8A330C181AEB778A8B0E605E6BD)
Полное имя : F:\Films\Мушкетёры\Д'артаньян и три мушкетёра 1 серия.mkv
Формат : Matroska
Версия формата : Version 1
Размер файла : 1,42 Гбайт
Продолжительность : 1 ч. 25 м.
Общий поток : 2388 Кбит/сек
Дата кодирования : UTC 2009-04-03 17:05:09
Программа кодирования : mkvmerge v2.4.2 ('Oh My God') built on Jan 18 2009 17:30:28
Библиотека кодирования : libebml v0.7.7 + libmatroska v0.8.1
Видео
Идентификатор : 1
Формат : AVC
Формат/Информация : Advanced Video Codec
Профиль формата : [email protected]
Параметр CABAC формата : Да
Параметр ReFrames формата : 1 кадр
Идентификатор кодека : V_MPEG4/ISO/AVC
Продолжительность : 1 ч. 25 м.
Битрейт : 2000 Кбит/сек
Ширина : 720 пикселей
Высота : 576 пикселей
Соотношение сторон : 5:4
Частота кадров : 25,000 кадров/сек
Стандарт вещания : PAL
Цветовое пространство : YUV
Субдискретизация насыщенности : 4:2:0
Битовая глубина : 8 бит
Тип развёртки : Прогрессивная
Бит/(Пиксели*Кадры) : 0.193
Размер потока : 1,17 Гбайт (82%)
Библиотека кодирования : x264 core 67 r1134M b8808bf
Настройки программы : cabac=1 / ref=1 / deblock=1:0:0 / analyse=0x1:0x111 / me=hex / subme=6 / psy_rd=1.0:0.0 / mixed_ref=0 / me_range=16 / chroma_me=1 / trellis=0 / 8x8dct=0 / cqm=0 / deadzone=21,11 / chroma_qp_offset=-2 / threads=3 / nr=0 / decimate=1 / mbaff=0 / bframes=0 / keyint=250 / keyint_min=25 / scenecut=40 / rc=abr / bitrate=2000 / ratetol=1.0 / qcomp=0.60 / qpmin=10 / qpmax=51 / qpstep=4 / ip_ratio=1.40 / aq=1:1.00
Язык : English
Аудио
Идентификатор : 2
Формат : AC-3
Формат/Информация : Audio Coding 3
Расширение режима : CM (complete main)
Идентификатор кодека : A_AC3
Продолжительность : 1 ч. 25 м.
Вид битрейта : Постоянный
Битрейт : 384 Кбит/сек
Каналы : 6 каналов
Расположение каналов : Front: L C R, Side: L R, LFE
Частота : 48,0 КГц
Битовая глубина : 16 бит
Метод сжатия : С потерями
Размер потока : 235 Мбайт (16%)
Заголовок : Русский
Язык : Russian
Общее
Уникальный идентификатор : 220630724080884829009360480581099595113 (0xA5FBEE8B7CFC58C1AAC623B1FB822569)
Полное имя : F:\Films\Мушкетёры\Д'артаньян и три мушкетёра 2 серия.mkv
Формат : Matroska
Версия формата : Version 1
Размер файла : 1,54 Гбайт
Продолжительность : 1 ч. 32 м.
Общий поток : 2391 Кбит/сек
Дата кодирования : UTC 2009-04-03 17:06:14
Программа кодирования : mkvmerge v2.4.2 ('Oh My God') built on Jan 18 2009 17:30:28
Библиотека кодирования : libebml v0.7.7 + libmatroska v0.8.1
Видео
Идентификатор : 1
Формат : AVC
Формат/Информация : Advanced Video Codec
Профиль формата : [email protected]
Параметр CABAC формата : Да
Параметр ReFrames формата : 1 кадр
Идентификатор кодека : V_MPEG4/ISO/AVC
Продолжительность : 1 ч. 32 м.
Битрейт : 1960 Кбит/сек
Ширина : 720 пикселей
Высота : 576 пикселей
Соотношение сторон : 5:4
Частота кадров : 25,000 кадров/сек
Стандарт вещания : PAL
Цветовое пространство : YUV
Субдискретизация насыщенности : 4:2:0
Битовая глубина : 8 бит
Тип развёртки : Прогрессивная
Бит/(Пиксели*Кадры) : 0.189
Размер потока : 1,26 Гбайт (82%)
Язык : English
Аудио
Идентификатор : 2
Формат : AC-3
Формат/Информация : Audio Coding 3
Расширение режима : CM (complete main)
Идентификатор кодека : A_AC3
Продолжительность : 1 ч. 32 м.
Вид битрейта : Постоянный
Битрейт : 384 Кбит/сек
Каналы : 6 каналов
Расположение каналов : Front: L C R, Side: L R, LFE
Частота : 48,0 КГц
Битовая глубина : 16 бит
Метод сжатия : С потерями
Задержка видео : 16 мс.
Размер потока : 253 Мбайт (16%)
Заголовок : Русский
Язык : Russian
Общее
Уникальный идентификатор : 187039837502053025447342476242209216123 (0x8CB68FF8635EFAB29F7D87127320167B)
Полное имя : F:\Films\Мушкетёры\Д'артаньян и три мушкетёра 3 серия.mkv
Формат : Matroska
Версия формата : Version 1
Размер файла : 1,18 Гбайт
Продолжительность : 1 ч. 11 м.
Общий поток : 2378 Кбит/сек
Дата кодирования : UTC 2009-04-02 13:17:23
Программа кодирования : mkvmerge v2.5.3 ('Boogie') built on Mar 7 2009 15:00:41
Библиотека кодирования : libebml v0.7.7 + libmatroska v0.8.1
Видео
Идентификатор : 1
Формат : AVC
Формат/Информация : Advanced Video Codec
Профиль формата : [email protected]
Параметр CABAC формата : Да
Параметр ReFrames формата : 1 кадр
Идентификатор кодека : V_MPEG4/ISO/AVC
Продолжительность : 1 ч. 11 м.
Битрейт : 2000 Кбит/сек
Ширина : 720 пикселей
Высота : 576 пикселей
Соотношение сторон : 5:4
Частота кадров : 25,000 кадров/сек
Стандарт вещания : PAL
Цветовое пространство : YUV
Субдискретизация насыщенности : 4:2:0
Битовая глубина : 8 бит
Тип развёртки : Прогрессивная
Бит/(Пиксели*Кадры) : 0.193
Размер потока : 989 Мбайт (82%)
Библиотека кодирования : x264 core 67 r1134M b8808bf
Настройки программы : cabac=1 / ref=1 / deblock=1:0:0 / analyse=0x1:0x111 / me=hex / subme=6 / psy_rd=1.0:0.0 / mixed_ref=0 / me_range=16 / chroma_me=1 / trellis=0 / 8x8dct=0 / cqm=0 / deadzone=21,11 / chroma_qp_offset=-2 / threads=3 / nr=0 / decimate=1 / mbaff=0 / bframes=0 / keyint=250 / keyint_min=25 / scenecut=40 / rc=abr / bitrate=2000 / ratetol=1.0 / qcomp=0.60 / qpmin=10 / qpmax=51 / qpstep=4 / ip_ratio=1.40 / aq=1:1.00
Язык : English
Аудио
Идентификатор : 2
Формат : AC-3
Формат/Информация : Audio Coding 3
Расширение режима : CM (complete main)
Идентификатор кодека : A_AC3
Продолжительность : 1 ч. 11 м.
Вид битрейта : Постоянный
Битрейт : 384 Кбит/сек
Каналы : 6 каналов
Расположение каналов : Front: L C R, Side: L R, LFE
Частота : 48,0 КГц
Битовая глубина : 16 бит
Метод сжатия : С потерями
Размер потока : 195 Мбайт (16%)
Заголовок : Русский
Язык : Russian

Мушкетёры 20 лет спустя Описание: В неспокойное для Франции и себя лично время кардинал Мазарини требует у королевы Анны поделиться с ним именами четверки друзей, которые с успехом помогали ей в борьбе против кардинала Ришелье. Королева называет имя д’Артаньяна, лейтенанта королевских мушкетеров.
Мазарини вызывает его к себе и приказывает разыскать Атоса, Портоса и Арамиса, заодно попытавшись привлечь их к нему на службу. Но д’Артаньяну удается выполнить поручение лишь наполовину: в то время как Портос, далекий от политики, присоединяется к нему, Атос и Арамис оказываются по другую сторону баррикад — они всецело поддерживают враждебную кардиналу Фронду. Таким образом, бывшие друзья оказываются врагами и их пути пересекутся гораздо раньше, чем они могли бы предположить…
Год выпуска: 1992
Источник/Качество: DVDRip
Формат: MKV
Видео кодек: AVC
Аудио кодек: AC3
Видео: 720x576, 25 fps,AVC ~2000 kbps.
Аудио: 48 kHz, MPEG Layer 3, 2 ch, 192.00 kbps
1-я серия
Продолжительность: 01:02:17
2-я серия
Продолжительность: 01:02:16
3-я серия
Продолжительность: 01:14:08
4-я серия
Продолжительность: 01:33:43
Общее
Уникальный идентификатор : 237191943626963126807811537524223753228 (0xB27181B5C56A916988AAA7C80F3DBC0C)
Полное имя : F:\Films\Мушкетёры\Мушкетёры 20 лет спустя 1 серия.mkv
Формат : Matroska
Версия формата : Version 1
Размер файла : 980 Мбайт
Продолжительность : 1 ч. 2 м.
Общий поток : 2200 Кбит/сек
Дата кодирования : UTC 2009-04-03 16:27:08
Программа кодирования : mkvmerge v2.5.3 ('Boogie') built on Mar 7 2009 15:00:41
Библиотека кодирования : libebml v0.7.7 + libmatroska v0.8.1
Видео
Идентификатор : 1
Формат : AVC
Формат/Информация : Advanced Video Codec
Профиль формата : [email protected]
Параметр CABAC формата : Да
Параметр ReFrames формата : 1 кадр
Идентификатор кодека : V_MPEG4/ISO/AVC
Продолжительность : 1 ч. 2 м.
Битрейт : 2000 Кбит/сек
Ширина : 720 пикселей
Высота : 576 пикселей
Соотношение сторон : 5:4
Частота кадров : 25,000 кадров/сек
Стандарт вещания : PAL
Цветовое пространство : YUV
Субдискретизация насыщенности : 4:2:0
Битовая глубина : 8 бит
Тип развёртки : Прогрессивная
Бит/(Пиксели*Кадры) : 0.193
Размер потока : 875 Мбайт (89%)
Библиотека кодирования : x264 core 67 r1134M b8808bf
Настройки программы : cabac=1 / ref=1 / deblock=1:0:0 / analyse=0x1:0x111 / me=hex / subme=6 / psy_rd=1.0:0.0 / mixed_ref=0 / me_range=16 / chroma_me=1 / trellis=0 / 8x8dct=0 / cqm=0 / deadzone=21,11 / chroma_qp_offset=-2 / threads=3 / nr=0 / decimate=1 / mbaff=0 / bframes=0 / keyint=250 / keyint_min=25 / scenecut=40 / rc=abr / bitrate=2000 / ratetol=1.0 / qcomp=0.60 / qpmin=10 / qpmax=51 / qpstep=4 / ip_ratio=1.40 / aq=1:1.00
Язык : English
Аудио
Идентификатор : 2
Формат : AC-3
Формат/Информация : Audio Coding 3
Расширение режима : CM (complete main)
Идентификатор кодека : A_AC3
Продолжительность : 1 ч. 2 м.
Вид битрейта : Постоянный
Битрейт : 192 Кбит/сек
Каналы : 2 канала
Расположение каналов : Front: L R
Частота : 48,0 КГц
Битовая глубина : 16 бит
Метод сжатия : С потерями
Размер потока : 85,5 Мбайт (9%)
Заголовок : Русский
Язык : Russian
Общее
Уникальный идентификатор : 229729094315441996848564281485248261988 (0xACD436D4C1AB9431B1D7B90F5C4D6F64)
Полное имя : F:\Films\Мушкетёры\Мушкетёры 20 лет спустя 2 серия.mkv
Формат : Matroska
Версия формата : Version 1
Размер файла : 1,11 Гбайт
Продолжительность : 1 ч. 12 м.
Общий поток : 2201 Кбит/сек
Дата кодирования : UTC 2009-04-03 16:27:46
Программа кодирования : mkvmerge v2.5.3 ('Boogie') built on Mar 7 2009 15:00:41
Библиотека кодирования : libebml v0.7.7 + libmatroska v0.8.1
Видео
Идентификатор : 1
Формат : AVC
Формат/Информация : Advanced Video Codec
Профиль формата : [email protected]
Параметр CABAC формата : Да
Параметр ReFrames формата : 1 кадр
Идентификатор кодека : V_MPEG4/ISO/AVC
Продолжительность : 1 ч. 12 м.
Битрейт : 2000 Кбит/сек
Ширина : 720 пикселей
Высота : 576 пикселей
Соотношение сторон : 5:4
Частота кадров : 25,000 кадров/сек
Стандарт вещания : PAL
Цветовое пространство : YUV
Субдискретизация насыщенности : 4:2:0
Битовая глубина : 8 бит
Тип развёртки : Прогрессивная
Бит/(Пиксели*Кадры) : 0.193
Размер потока : 1016 Мбайт (89%)
Библиотека кодирования : x264 core 67 r1134M b8808bf
Настройки программы : cabac=1 / ref=1 / deblock=1:0:0 / analyse=0x1:0x111 / me=hex / subme=6 / psy_rd=1.0:0.0 / mixed_ref=0 / me_range=16 / chroma_me=1 / trellis=0 / 8x8dct=0 / cqm=0 / deadzone=21,11 / chroma_qp_offset=-2 / threads=3 / nr=0 / decimate=1 / mbaff=0 / bframes=0 / keyint=250 / keyint_min=25 / scenecut=40 / rc=abr / bitrate=2000 / ratetol=1.0 / qcomp=0.60 / qpmin=10 / qpmax=51 / qpstep=4 / ip_ratio=1.40 / aq=1:1.00
Язык : English
Аудио
Идентификатор : 2
Формат : AC-3
Формат/Информация : Audio Coding 3
Расширение режима : CM (complete main)
Идентификатор кодека : A_AC3
Продолжительность : 1 ч. 12 м.
Вид битрейта : Постоянный
Битрейт : 192 Кбит/сек
Каналы : 2 канала
Расположение каналов : Front: L R
Частота : 48,0 КГц
Битовая глубина : 16 бит
Метод сжатия : С потерями
Размер потока : 99,3 Мбайт (9%)
Заголовок : Русский
Язык : Russian
Общее
Уникальный идентификатор : 228630680360881817703180655710229470455 (0xAC00AAD78851B246B8E65BC0C41B9CF7)
Полное имя : F:\Films\Мушкетёры\Мушкетёры 20 лет спустя 3 серия.mkv
Формат : Matroska
Версия формата : Version 1
Размер файла : 1,14 Гбайт
Продолжительность : 1 ч. 14 м.
Общий поток : 2204 Кбит/сек
Дата кодирования : UTC 2009-04-03 16:28:34
Программа кодирования : mkvmerge v2.5.3 ('Boogie') built on Mar 7 2009 15:00:41
Библиотека кодирования : libebml v0.7.7 + libmatroska v0.8.1
Видео
Идентификатор : 1
Формат : AVC
Формат/Информация : Advanced Video Codec
Профиль формата : [email protected]
Параметр CABAC формата : Да
Параметр ReFrames формата : 1 кадр
Идентификатор кодека : V_MPEG4/ISO/AVC
Продолжительность : 1 ч. 14 м.
Битрейт : 2000 Кбит/сек
Ширина : 720 пикселей
Высота : 576 пикселей
Соотношение сторон : 5:4
Частота кадров : 25,000 кадров/сек
Стандарт вещания : PAL
Цветовое пространство : YUV
Субдискретизация насыщенности : 4:2:0
Битовая глубина : 8 бит
Тип развёртки : Прогрессивная
Бит/(Пиксели*Кадры) : 0.193
Размер потока : 1,02 Гбайт (89%)
Библиотека кодирования : x264 core 67 r1134M b8808bf
Настройки программы : cabac=1 / ref=1 / deblock=1:0:0 / analyse=0x1:0x111 / me=hex / subme=6 / psy_rd=1.0:0.0 / mixed_ref=0 / me_range=16 / chroma_me=1 / trellis=0 / 8x8dct=0 / cqm=0 / deadzone=21,11 / chroma_qp_offset=-2 / threads=3 / nr=0 / decimate=1 / mbaff=0 / bframes=0 / keyint=250 / keyint_min=25 / scenecut=40 / rc=abr / bitrate=2000 / ratetol=1.0 / qcomp=0.60 / qpmin=10 / qpmax=51 / qpstep=4 / ip_ratio=1.40 / aq=1:1.00
Язык : English
Аудио
Идентификатор : 2
Формат : AC-3
Формат/Информация : Audio Coding 3
Расширение режима : CM (complete main)
Идентификатор кодека : A_AC3
Продолжительность : 1 ч. 14 м.
Вид битрейта : Постоянный
Битрейт : 192 Кбит/сек
Каналы : 2 канала
Расположение каналов : Front: L R
Частота : 48,0 КГц
Битовая глубина : 16 бит
Метод сжатия : С потерями
Размер потока : 102 Мбайт (9%)
Заголовок : Русский
Язык : Russian
Общее
Уникальный идентификатор : 183387817403854108234200664917233836005 (0x89F7357A4CA2D4A68EE5551B51831FE5)
Полное имя : F:\Films\Мушкетёры\Мушкетёры 20 лет спустя 4 серия.mkv
Формат : Matroska
Версия формата : Version 1
Размер файла : 1,44 Гбайт
Продолжительность : 1 ч. 33 м.
Общий поток : 2198 Кбит/сек
Дата кодирования : UTC 2009-04-03 16:29:47
Программа кодирования : mkvmerge v2.5.3 ('Boogie') built on Mar 7 2009 15:00:41
Библиотека кодирования : libebml v0.7.7 + libmatroska v0.8.1
Видео
Идентификатор : 1
Формат : AVC
Формат/Информация : Advanced Video Codec
Профиль формата : [email protected]
Параметр CABAC формата : Да
Параметр ReFrames формата : 1 кадр
Идентификатор кодека : V_MPEG4/ISO/AVC
Продолжительность : 1 ч. 33 м.
Битрейт : 2000 Кбит/сек
Ширина : 720 пикселей
Высота : 576 пикселей
Соотношение сторон : 5:4
Частота кадров : 25,000 кадров/сек
Стандарт вещания : PAL
Цветовое пространство : YUV
Субдискретизация насыщенности : 4:2:0
Битовая глубина : 8 бит
Тип развёртки : Прогрессивная
Бит/(Пиксели*Кадры) : 0.193
Размер потока : 1,28 Гбайт (89%)
Библиотека кодирования : x264 core 67 r1134M b8808bf
Настройки программы : cabac=1 / ref=1 / deblock=1:0:0 / analyse=0x1:0x111 / me=hex / subme=6 / psy_rd=1.0:0.0 / mixed_ref=0 / me_range=16 / chroma_me=1 / trellis=0 / 8x8dct=0 / cqm=0 / deadzone=21,11 / chroma_qp_offset=-2 / threads=3 / nr=0 / decimate=1 / mbaff=0 / bframes=0 / keyint=250 / keyint_min=25 / scenecut=40 / rc=abr / bitrate=2000 / ratetol=1.0 / qcomp=0.60 / qpmin=10 / qpmax=51 / qpstep=4 / ip_ratio=1.40 / aq=1:1.00
Язык : English
Аудио
Идентификатор : 2
Формат : AC-3
Формат/Информация : Audio Coding 3
Расширение режима : CM (complete main)
Идентификатор кодека : A_AC3
Продолжительность : 1 ч. 33 м.
Вид битрейта : Постоянный
Битрейт : 192 Кбит/сек
Каналы : 2 канала
Расположение каналов : Front: L R
Частота : 48,0 КГц
Битовая глубина : 16 бит
Метод сжатия : С потерями
Размер потока : 129 Мбайт (9%)
Заголовок : Русский
Язык : Russian

Мушкетёры 30 лет спустя Описание: Вольная экранизация романа Александра Дюма "Виконт Де Бражелон, или Десять лет спустя". Заключительная, надо полагать, часть телевизионной трилогии Георгия Юнгвальда-Хилькевича. Когда-то гасконец Д'Артаньян познакомился с тремя мушкетерами - Атосом, Портосом и Арамисом, и они стали неразлучными друзьями. Время идет. Теперь прошло тридцать лет с тех времен... а приключения продолжаются...
Год выпуска: 1993
Источник/Качество: DVDRip
Формат: MKV
Видео кодек: AVC
Аудио кодек: AC3
Видео: 720x576, 25 fps,AVC ~2000 kbps.
Аудио: 48 kHz, MPEG Layer 3, 2 ch, 384.00 kbps
1-я серия
Продолжительность: 01:16:34
2-я серия
Продолжительность: 01:13:11
Общее
Уникальный идентификатор : 175765047626555731899678153362134977153 (0x843B1DE93AFA74108B9468BA6F56CA81)
Полное имя : F:\Films\Мушкетёры\Тайна королевы Анны или Мушкетёры 30 лет спустя 1 серия.mkv
Формат : Matroska
Версия формата : Version 1
Размер файла : 1,37 Гбайт
Продолжительность : 1 ч. 16 м.
Общий поток : 2570 Кбит/сек
Дата кодирования : UTC 2009-04-03 16:31:16
Программа кодирования : mkvmerge v2.5.3 ('Boogie') built on Mar 7 2009 15:00:41
Библиотека кодирования : libebml v0.7.7 + libmatroska v0.8.1
Видео
Идентификатор : 1
Формат : AVC
Формат/Информация : Advanced Video Codec
Профиль формата : [email protected]
Параметр CABAC формата : Да
Параметр ReFrames формата : 1 кадр
Идентификатор кодека : V_MPEG4/ISO/AVC
Продолжительность : 1 ч. 16 м.
Битрейт : 2200 Кбит/сек
Ширина : 720 пикселей
Высота : 576 пикселей
Соотношение сторон : 5:4
Частота кадров : 25,000 кадров/сек
Стандарт вещания : PAL
Цветовое пространство : YUV
Субдискретизация насыщенности : 4:2:0
Битовая глубина : 8 бит
Тип развёртки : Прогрессивная
Бит/(Пиксели*Кадры) : 0.212
Размер потока : 1,14 Гбайт (83%)
Библиотека кодирования : x264 core 67 r1134M b8808bf
Настройки программы : cabac=1 / ref=1 / deblock=1:0:0 / analyse=0x1:0x111 / me=hex / subme=6 / psy_rd=1.0:0.0 / mixed_ref=0 / me_range=16 / chroma_me=1 / trellis=0 / 8x8dct=0 / cqm=0 / deadzone=21,11 / chroma_qp_offset=-2 / threads=3 / nr=0 / decimate=1 / mbaff=0 / bframes=0 / keyint=250 / keyint_min=25 / scenecut=40 / rc=abr / bitrate=2200 / ratetol=1.0 / qcomp=0.60 / qpmin=10 / qpmax=51 / qpstep=4 / ip_ratio=1.40 / aq=1:1.00
Язык : English
Аудио
Идентификатор : 2
Формат : AC-3
Формат/Информация : Audio Coding 3
Расширение режима : CM (complete main)
Идентификатор кодека : A_AC3
Продолжительность : 1 ч. 16 м.
Вид битрейта : Постоянный
Битрейт : 384 Кбит/сек
Каналы : 6 каналов
Расположение каналов : Front: L C R, Side: L R, LFE
Частота : 48,0 КГц
Битовая глубина : 16 бит
Метод сжатия : С потерями
Размер потока : 210 Мбайт (15%)
Заголовок : Русский
Язык : Russian
Общее
Уникальный идентификатор : 249663083351717497329249710696609016575 (0xBBD35C5EEDFF49018019BA0C5122EAFF)
Полное имя : F:\Films\Мушкетёры\Тайна королевы Анны или Мушкетёры 30 лет спустя 2 серия.mkv
Формат : Matroska
Версия формата : Version 1
Размер файла : 1,31 Гбайт
Продолжительность : 1 ч. 13 м.
Общий поток : 2567 Кбит/сек
Дата кодирования : UTC 2009-04-03 16:32:24
Программа кодирования : mkvmerge v2.5.3 ('Boogie') built on Mar 7 2009 15:00:41
Библиотека кодирования : libebml v0.7.7 + libmatroska v0.8.1
Видео
Идентификатор : 1
Формат : AVC
Формат/Информация : Advanced Video Codec
Профиль формата : [email protected]
Параметр CABAC формата : Да
Параметр ReFrames формата : 1 кадр
Идентификатор кодека : V_MPEG4/ISO/AVC
Продолжительность : 1 ч. 13 м.
Битрейт : 2200 Кбит/сек
Ширина : 720 пикселей
Высота : 576 пикселей
Соотношение сторон : 5:4
Частота кадров : 25,000 кадров/сек
Стандарт вещания : PAL
Цветовое пространство : YUV
Субдискретизация насыщенности : 4:2:0
Битовая глубина : 8 бит
Тип развёртки : Прогрессивная
Бит/(Пиксели*Кадры) : 0.212
Размер потока : 1,09 Гбайт (83%)
Библиотека кодирования : x264 core 67 r1134M b8808bf
Настройки программы : cabac=1 / ref=1 / deblock=1:0:0 / analyse=0x1:0x111 / me=hex / subme=6 / psy_rd=1.0:0.0 / mixed_ref=0 / me_range=16 / chroma_me=1 / trellis=0 / 8x8dct=0 / cqm=0 / deadzone=21,11 / chroma_qp_offset=-2 / threads=3 / nr=0 / decimate=1 / mbaff=0 / bframes=0 / keyint=250 / keyint_min=25 / scenecut=40 / rc=abr / bitrate=2200 / ratetol=1.0 / qcomp=0.60 / qpmin=10 / qpmax=51 / qpstep=4 / ip_ratio=1.40 / aq=1:1.00
Язык : English
Аудио
Идентификатор : 2
Формат : AC-3
Формат/Информация : Audio Coding 3
Расширение режима : CM (complete main)
Идентификатор кодека : A_AC3
Продолжительность : 1 ч. 13 м.
Вид битрейта : Постоянный
Битрейт : 384 Кбит/сек
Каналы : 6 каналов
Расположение каналов : Front: L C R, Side: L R, LFE
Частота : 48,0 КГц
Битовая глубина : 16 бит
Метод сжатия : С потерями
Размер потока : 201 Мбайт (15%)
Заголовок : Русский
Язык : Russian
Download / Скачать

Хотите скачать бесплатно? Зарегистрируйтесь на сайте (ссылка на регистрацию). Pirat.ca - самый быстрый торрент трекер в рунете!

Как скачивать  ·   Что такое торрент  ·   Рейтинг и ограничения



Последний раз редактировалось: Sirleh (2011-11-07 16:45), всего редактировалось 1 раз

Пост 07-Ноя-2011 19:08 (спустя 18 часов)

Топик был перенесен из форума Наше Кино в форум Советское кино

Skinwalker
 

studio120

Шкипер

Пост 11-Ноя-2011 22:18 (спустя 4 дня)

[Q] 

скорости намутите )
завтра днем желательно ( суббота )
[Профиль]  [ЛС] 

arhad81

Шкипер

19

Пост 14-Ноя-2011 22:26 (спустя 3 дня)

[Q] 

а где последняя часть про детей ???

_________________
[Профиль]  [ЛС] 

Sirleh ®

Лоцман

110

Пост 16-Ноя-2011 12:46 (спустя 1 день 14 часов)

[Q] 

Никаких детей! =)
Не стал включать в раздачу, ибо "Дети мушкетёров" не попадают под общий стиль фильмов ни по жанру, ни по смыслу.
[Профиль]  [ЛС] 

XAPOH

Гроза морей

Пост 17-Ноя-2011 12:19 (спустя 23 часа)

[Q] 

Качаем. Пойдет в коллекцию.
Релизер прав на 100% - никаких "детей", это новодел не имеющий ничего общего с нашими любимыми "мушкетерами" кроме названия. Да и сам фильм полное УГ, я его больше половины просто не осилил, убожество имхо.
Спасибо!

_________________

<<<Dolus an virtus quis in hoste requirat?>>>
Intel Core i7 2600, 16Gb Ram, GTX 670, SSD.
PS4.
[Профиль]  [ЛС] 

kufre

Корсар

3086

Пост 28-Ноя-2011 16:18 (спустя 11 дней)

[Q] 

Никаких детей! =)
Не стал включать в раздачу, ибо "Дети мушкетёров" не попадают под общий стиль фильмов ни по жанру, ни по смыслу.
Полностью поддерживаю!!
Спасибо за раздачу!!

_________________
[Профиль]  [ЛС] 

Santiago

Шкипер

792

Пост 11-Дек-2011 03:01 (спустя 12 дней)

[Q] 

Люди, умоляю, вернитесь на раздачу)
[Профиль]  [ЛС] 

Sirleh ®

Лоцман

110

Пост 12-Дек-2011 18:44 (спустя 1 день 15 часов)

[Q] 

Я тут =)
[Профиль]  [ЛС] 

CHARLI2236

1097

Пост 13-Дек-2011 13:43 (спустя 18 часов)

[Q] 

спасибо

_________________
[Профиль]  [ЛС] 

vwgolf1

Лоцман

Пост 20-Дек-2011 18:49 (спустя 7 дней)

[Q] 

Люди, вернитесь на раздачу)
[Профиль]  [ЛС] 

VaNo192

Корсар

Пост 02-Фев-2012 05:34 (спустя 1 месяц 12 дней)

[Q] 

[Профиль]  [ЛС] 

abc7

Гроза морей

464

Пост 09-Фев-2012 21:35 (спустя 7 дней)

[Q] 

Прекрасная картина!
[Профиль]  [ЛС] 

RIIDDIK

Шкипер

84

Пост 10-Фев-2012 11:34 (спустя 13 часов)

[Q] 

[Профиль]  [ЛС] 

reliz82

Шкипер

49

Пост 31-Дек-2012 21:39 (спустя 10 месяцев 21 день)

[Q] 

Фильм моего детства.
[Профиль]  [ЛС] 

SERKOV

Шкипер

Пост 07-Мар-2013 16:46 (спустя 2 месяца 6 дней)

[Q] 

Зачем прятать истинные названия фильмов где-то в тех.данных под спойлерами? Нельзя что ли написать перед описаниями, крупно "Д`Артаньян и три мушкетера" "Мушкетёры 20 лет спустя " и т.д.

_________________
Путина бояться - в сортир не ходить! (кавказская пословица)
[Профиль]  [ЛС] 

Kodeks50

Шкипер

Пост 25-Мар-2013 21:40 (спустя 18 дней)

[Q] 

У меня вопрос: версия первого фильма ("Д`Артаньян и три мушкетёра") здесь полная? Просто в советское время фильм часто демонстрировался с вырезанным куском - не хватало части эпизода с миледи и Фельтоном в домике на берегу, включая песню миледи в этом эпизоде.
[Профиль]  [ЛС] 

dido51

Морской Волк

Пост 30-Июл-2013 19:08 (спустя 4 месяца 4 дня)

[Q] 

Спасибо!!! Супер!
[Профиль]  [ЛС] 

Volodko

Корсар

Пост 02-Сен-2013 13:17 (спустя 1 месяц 2 дня)

[Q] 

Автору респект!!!
[Профиль]  [ЛС] 

Sakoru

Корсар

Пост 04-Ноя-2013 16:55 (спустя 2 месяца 2 дня)

[Q] 

И книги отличные, и экранизация не разочаровала)

_________________
[Профиль]  [ЛС] 

veter510

Флибустьер

Пост 02-Дек-2013 10:56 (спустя 27 дней)

[Q] 

Спасибо! С ностальгией вспоминаю те времена, когда "Д'артаньян и три мушкетёра" первый раз показывали по ящику....
[Профиль]  [ЛС] 

jofrei53

Корсар

Пост 29-Дек-2013 14:05 (спустя 27 дней)

[Q] 

Спасибо большое!Это СУПЕР! Автору респект!!! Супер!
[Профиль]  [ЛС] 

muadip

Штурман

Пост 02-Мар-2014 00:47 (спустя 2 месяца 3 дня)

[Q] 

Не хватает для полноты еще одной части http://www.kinopoisk.ru/film/309200/
[Профиль]  [ЛС] 

iamback2

Корсар

17

Пост 02-Мар-2014 10:28 (спустя 9 часов)

[Q] 

классика да времена были суперские)))) Спасибо!!!
[Профиль]  [ЛС] 

tubuc

Корсар

103

Пост 11-Фев-2016 22:57 (спустя 1 год 11 месяцев)

[Q] 

!COOL! Хороший фильм, в коллекцию,
[Профиль]  [ЛС] 
Показать сообщения:    
Ответить на тему

Текущее время: Сегодня 09:46

Часовой пояс: GMT + 4



Вы не можете начинать темы
Вы не можете отвечать на сообщения
Вы не можете редактировать свои сообщения
Вы не можете удалять свои сообщения
Вы не можете голосовать в опросах
Вы не можете прикреплять файлы к сообщениям
Вы не можете скачивать файлы

▼ Вниз