ML
     
  Уважаемый Гость!
Вы можете поддержать проект и зарегистрироваться у наших партнеров - онлайн-стратегия MyLands. При регистрации в игре Вы получите код, который сможете активировать после регистрации на pirat.ca и получить 1000 дублонов.

Ваш код:
34514219cfad5497a1822ecc1269bea77988f9aa
 
     

Петр Первый. 2 серии (Владимир Петров) [1937 г., историко-биографический, DVDRip]

Ответить на тему
 
Автор
Сообщение

Пост 07-Ноя-2011 16:44

[Q] 

K-0-t

Морской Волк

Петр Первый (2 серии)
Год выпуска: 1937-1939гг
Страна: СССР (Ленфильм)
Жанр: историко-биографический
Продолжительность:
1 серия 01:37:26
2 серия 01:35:14
Режиссер: Владимир Петров
Сценарий: Алексей Толстой, Владимир Петров, Николай Лещенко
В ролях:
Николай Симонов — Пётр I
Николай Черкасов — царевич Алексей
Алла Тарасова — Екатерина I
Михаил Жаров — А. Д. Меншиков
Михаил Тарханов — Б. П. Шереметев
Константин Гибшман — Буйносов
Виктор Добровольский — Федька
Н. Рошефор — Демидов
Фёдор Богданов — Бровкин
Николай Литвинов — П. П. Шафиров
Ирина Зарубина — Ефросинья
Г. Орлов — Жемов
Александр Лариков — старый солдат
Пётр Кузнецов — Вяземский
Анатолий Ржанов — Долгорукий
М. Сафронова — Ольга Буйносова
Виктор Добровольский — П. И. Ягужинский
Владимир Гардин — граф П. А. Толстой
Э. Гаррик — король шведский Карл XII
Алексей Ватуля — Мазепа
Владимир Ершов — иностранный посол
Н. Корсакпаев — Абдурахман (роль озвучил — Михаил Глузский)
Евгений Агеев — эпизод (в титрах не указан)
Нина Латонина — эпизод (в титрах не указана)
Давид Гутман — сэр Оборн (в титрах не указан)
Николай Мичурин — кабинет-секретарь Макаров (в титрах не указан)
Иван Новосельцев — гонец (в титрах не указан)
Георгий Куровский — Евреинов (в титрах не указан)
Описание: Исторический фильм по роману Алексея Толстого о жизни и государственной деятельности преобразователя России XVIII века царя Петра I, начиная от Нарвской битвы. Конец XVII — начало XVIII столетия. Период становления Великой Российской Империи, время крупных реформ и тайных заговоров, великих воинских побед и дворцовых переворотов, безудержного веселья ассамблей и жестокого кровопролития казней. В фильме отображен конфликт между царем и его сыном Алексеем.
Съёмки первой серии фильма были закончены в 1937 году, второй — в 1938 году.-Награды:
Приз на выставке в Париже (1937).
Сталинская премия (1941) I степени — Михаил Жаров, Владимир Петров, Николай Симонов.-Фильм восстановлен на киностудии «Мосфильм» в 1965 году.
Режиссёр восстановления — Тамара Лисициан
Звукооператор — Н. Тимарцев
-Источник/Качество: DVDRip
Формат: AVI
Видео кодек: XviD
Аудио кодек: MPEG Layer 3
Видео: 480x368 (1.30:1), 25 fps, XviD 1.1 beta 2 (build 39), 882 kbps avg, 0.20 bit/pixel
Аудио: 44.100 kHz, MPEG Layer 3, 2 ch, 112.00 kbps avg
General
Complete name : E:\Фильмы\Художественные\Отечественные фильмы\Военно-исторические\Петр Первый (Ленфильм 1937г.)\Петр Первый (1).avi
Format : AVI
Format/Info : Audio Video Interleave
File size : 700 MiB
Duration : 1h 37mn
Overall bit rate : 1 005 Kbps
Writing application : VirtualDubMod 1.5.10.2 (build 2540/release)
Writing library : VirtualDubMod build 2540/release
Video
ID : 0
Format : MPEG-4 Visual
Format profile : [email protected]
Format settings, BVOP : Yes
Format settings, QPel : No
Format settings, GMC : No warppoints
Format settings, Matrix : Default (H.263)
Codec ID : XVID
Codec ID/Hint : XviD
Duration : 1h 37mn
Bit rate : 883 Kbps
Width : 480 pixels
Height : 368 pixels
Display aspect ratio : 4:3
Frame rate : 25.000 fps
Resolution : 24 bits
Colorimetry : 4:2:0
Scan type : Progressive
Bits/(Pixel*Frame) : 0.200
Stream size : 615 MiB (88%)
Writing library : XviD 1.1.0 Beta2 (UTC 2005-04-04)
Audio
ID : 1
Format : MPEG Audio
Format version : Version 1
Format profile : Layer 3
Format_Settings_Mode : Joint stereo / MS Stereo
Codec ID : 55
Codec ID/Hint : MP3
Duration : 1h 37mn
Bit rate mode : Constant
Bit rate : 112 Kbps
Channel(s) : 2 channels
Sampling rate : 44.1 KHz
Resolution : 16 bits
Stream size : 78.1 MiB (11%)
Alignment : Split accross interleaves
Interleave, duration : 40 ms (1.00 video frame)
Interleave, preload duration : 500 ms
General
Complete name : E:\Фильмы\Художественные\Отечественные фильмы\Военно-исторические\Петр Первый (Ленфильм 1937г.)\Петр Первый (2).avi
Format : AVI
Format/Info : Audio Video Interleave
File size : 699 MiB
Duration : 1h 35mn
Overall bit rate : 1 026 Kbps
Writing application : VirtualDubMod 1.5.10.2 (build 2540/release)
Writing library : VirtualDubMod build 2540/release
Video
ID : 0
Format : MPEG-4 Visual
Format profile : [email protected]
Format settings, BVOP : Yes
Format settings, QPel : No
Format settings, GMC : No warppoints
Format settings, Matrix : Default (H.263)
Codec ID : XVID
Codec ID/Hint : XviD
Duration : 1h 35mn
Bit rate : 905 Kbps
Width : 480 pixels
Height : 368 pixels
Display aspect ratio : 4:3
Frame rate : 25.000 fps
Resolution : 24 bits
Colorimetry : 4:2:0
Scan type : Progressive
Bits/(Pixel*Frame) : 0.205
Stream size : 616 MiB (88%)
Writing library : XviD 1.1.0 Beta2 (UTC 2005-04-04)
Audio
ID : 1
Format : MPEG Audio
Format version : Version 1
Format profile : Layer 3
Format_Settings_Mode : Joint stereo / MS Stereo
Codec ID : 55
Codec ID/Hint : MP3
Duration : 1h 35mn
Bit rate mode : Constant
Bit rate : 112 Kbps
Channel(s) : 2 channels
Sampling rate : 44.1 KHz
Resolution : 16 bits
Stream size : 76.3 MiB (11%)
Alignment : Split accross interleaves
Interleave, duration : 40 ms (1.00 video frame)
Interleave, preload duration : 500 ms
Download / Скачать

Хотите скачать бесплатно? Зарегистрируйтесь на сайте (ссылка на регистрацию). Pirat.ca - самый быстрый торрент трекер в рунете!

Как скачивать  ·   Что такое торрент  ·   Рейтинг и ограничения

Пост 07-Ноя-2011 18:48 (спустя 2 часа 4 минуты)

Топик был перенесен из форума Наше Кино в форум Советское кино

Skinwalker
 

Фисташка

Пост 15-Авг-2012 12:02 (спустя 9 месяцев 7 дней)

[Q] 

.
[Профиль]  [ЛС] 
Показать сообщения:    
Ответить на тему

Текущее время: Сегодня 07:56

Часовой пояс: GMT + 4



Вы не можете начинать темы
Вы не можете отвечать на сообщения
Вы не можете редактировать свои сообщения
Вы не можете удалять свои сообщения
Вы не можете голосовать в опросах
Вы не можете прикреплять файлы к сообщениям
Вы не можете скачивать файлы

▼ Вниз