ML
     
  Уважаемый Гость!
Вы можете поддержать проект и зарегистрироваться у наших партнеров - онлайн-стратегия MyLands. При регистрации в игре Вы получите код, который сможете активировать после регистрации на pirat.ca и получить 1000 дублонов.

Ваш код:
5f4e94775bc0501caff7b254e79328d304c817d9
 
     

Адмирал Ушаков (Михаил Ромм) [1953 г., историко-биографический, DVDRip]

Ответить на тему
 
Автор
Сообщение

Пост 07-Ноя-2011 17:26

[Q] 

K-0-t

Морской Волк

Адмирал Ушаков
Год выпуска: 1953г.
Страна: СССР (Мосфильм)
Жанр: историко-биографический
Продолжительность: 01:41:06
Режиссер: Михаил Ромм
Сценарий: Александр Штейн
В ролях:
Иван Переверзев — Фёдор Фёдорович Ушаков
Борис Ливанов — князь Потемкин
Николай Свободин — Мордовцев
Николай Чистяков — Марко Иванович Войнович
Геннадий Юдин — Синявин
Владимир Дружников — Васильев
Алексей Алексеев — Метакса
Сергей Бондарчук — Тихон Прокофьев
Михаил Пуговкин — Пирожков
Николай Хрящиков — Ховрин
Георгий Юматов — Виктор Ермолаев
Павел Волков — лекарь Ермолаев
Ольга Жизнева — Екатерина II
Николай Волков — Уильям Питт
Иван Соловьёв — адмирал Нельсон
Владимир Этуш — Сеид-Али
Павел Шпрингфельд — Орфано
Григорий Шпигель — Томас Грей
Лев Фенин — Роберт Энсли
Пётр Соболевский — английский посол
Ян Янакиев — Сегюр, французский посол
Георгий Георгиу — турецкий посол
Вячеслав Гостинский — Ланской
Николай Кутузов — генерал
Андрей Файт — эпизод
Владимир Балашов — Белли
Виктор Кулаков — Коровин, адъютант Войновича
Пётр Любешкин — Лепёхин
Владимир Туманов — Фут
Галина Фролова — Мария Спиридоновна
Елена Максимова — Матрёна Ермолаева, мать Виктора
Глеб Романов — эпизод
Виктор Авдюшко — солдат
Владимир Осенев — горожанин
Готлиб Ронинсон — турок
Эммануил Геллер — турецкий адмирал
Юрий Леонидов — матрос
Описание: Действие фильма разворачивается в период правления императрицы Екатерины Великой. Капитан императорской яхты Фёдор Ушаков отказывается от придворной карьеры и испрашивает у государыни направления на строящийся Черноморский флот. С небольшим отрядом матросов и мастеровых он прибывает в Херсон на корабельные верфи. В это время на южных рубежах России свирепствует эпидемия чумы, среди рабочих зреет бунт. Тихон Прокофьев, по кличке «Рваное ухо», беглый крепостной из имения Ушакова и соратник Пугачева, по наущению английского шпиона подстрекает народ уходить на Дон. Ушаков с матросами останавливает бунтовщиков, организует тушение верфей, подожжённых тем же шпионом. Личным примером убеждает главного местного лекаря Ермолаева остаться, вводит строгий карантинный режим и побеждает чуму.
Одновременно со строительством флота начинается обучение экипажей кораблей.
Доп. информация: Первая часть кинодилогии, снятой в 1953 году знаменитым режиссёром Михаилом Роммом с актёром Иваном Переверзевым в главной роли. Фильм посвящен становлению российского флота на Чёрном море.
Фильм создан по инициативе командования советского ВМФ (Н. Г. Кузнецов) для объяснения исторической роли адмирала Ф. Ф. Ушакова в истории российского флота, так как утверждение Ордена Ушакова как главного флотоводческого ордена вызвало множество вопросов в СССР. В составлении и корректировке сценария главную роль играло руководство ВМФ и МИД СССР (по вопросам внешней политики исторического периода). Съёмки проводились в крепости в Белгороде-Днестровском.
В этом фильме дебютировали в кинематографе актёры Владимир Этуш и Готлиб Ронинсон (в титрах не указан).
Продолжение — фильм «Корабли штурмуют бастионы». Корабли штурмуют бастионы (Михаил Ромм) [1953 г., историко-биографический, DVDRip] (пост)
Источник/Качество: DVDRip
Формат: AVI
Видео кодек: DivX
Аудио кодек: MPEG Audio
Видео: 640x480 (1.33:1), 25 fps, DivX Codec 6.0, 856 kbps avg, 0.11 bit/pixel
Аудио: 44.100 kHz, MPEG Layer 3, 1 ch, 96.00 kbps avg
General
Complete name : E:\Фильмы\Художественные\Отечественные фильмы\Военно-исторические\Адмирал Ушаков (Мосфильм 1953г.).avi
Format : AVI
Format/Info : Audio Video Interleave
File size : 698 MiB
Duration : 1h 41mn
Overall bit rate : 965 Kbps
Writing application : Nandub v1.0rc2
Writing library : Nandub build 1853/release
Video
ID : 0
Format : MPEG-4 Visual
Format settings, BVOP : Yes
Format settings, QPel : No
Format settings, GMC : No warppoints
Format settings, Matrix : Default (H.263)
Muxing mode : Packed bitstream
Codec ID : DX50
Codec ID/Hint : DivX 5
Duration : 1h 41mn
Bit rate : 856 Kbps
Width : 640 pixels
Height : 480 pixels
Display aspect ratio : 4:3
Frame rate : 25.000 fps
Resolution : 24 bits
Colorimetry : 4:2:0
Scan type : Progressive
Bits/(Pixel*Frame) : 0.112
Stream size : 619 MiB (89%)
Writing library : DivX 6.0.0 (UTC 2005-06-15)
Audio
ID : 1
Format : MPEG Audio
Format version : Version 1
Format profile : Layer 3
Codec ID : 55
Codec ID/Hint : MP3
Duration : 1h 41mn
Bit rate mode : Constant
Bit rate : 96.0 Kbps
Channel(s) : 1 channel
Sampling rate : 44.1 KHz
Resolution : 16 bits
Stream size : 69.4 MiB (10%)
Alignment : Aligned on interleaves
Interleave, duration : 26 ms (0.65 video frame)
Interleave, preload duration : 496 ms
Writing library : LAME3.93
Encoding settings : -m m -V 4 -q 2 -lowpass 18.7 -b 96
Download / Скачать

Хотите скачать бесплатно? Зарегистрируйтесь на сайте (ссылка на регистрацию). Pirat.ca - самый быстрый торрент трекер в рунете!

Как скачивать  ·   Что такое торрент  ·   Рейтинг и ограничения



Последний раз редактировалось: K-0-t (2011-11-08 02:29), всего редактировалось 1 раз

Пост 07-Ноя-2011 18:40 (спустя 1 час 13 минут)

Топик был перенесен из форума Наше Кино в форум Советское кино

Skinwalker
 

Фисташка

Пост 15-Авг-2012 11:54 (спустя 9 месяцев 7 дней)

[Q] 

.
[Профиль]  [ЛС] 
Показать сообщения:    
Ответить на тему

Текущее время: Сегодня 15:38

Часовой пояс: GMT + 4



Вы не можете начинать темы
Вы не можете отвечать на сообщения
Вы не можете редактировать свои сообщения
Вы не можете удалять свои сообщения
Вы не можете голосовать в опросах
Вы не можете прикреплять файлы к сообщениям
Вы не можете скачивать файлы

▼ Вниз