ML
     
  Уважаемый Гость!
Вы можете поддержать проект и зарегистрироваться у наших партнеров - онлайн-стратегия MyLands. При регистрации в игре Вы получите код, который сможете активировать после регистрации на pirat.ca и получить 1000 дублонов.

Ваш код:
a01a592a88af5f9996a6d1baec61b18a1769954d
 
     

Корабли штурмуют бастионы (Михаил Ромм) [1953 г., историко-биографический, DVDRip]

Ответить на тему
 
Автор
Сообщение

Пост 07-Ноя-2011 18:01

[Q] 

K-0-t

Морской Волк

Корабли штурмуют бастионы
Год выпуска: 1953г.
Страна: СССР (Мосфильм)
Жанр: историко-биографический
Продолжительность: 01:29:37
Режиссер: Михаил Ромм
Сценарий: Александр Штейн
В ролях:
Иван Переверзев — Фёдор Фёдорович Ушаков
Геннадий Юдин — Сенявин
Владимир Дружников — Васильев
Алексей Алексеев — Метакса
Владимир Балашов — Белли
Сергей Бондарчук — Тихон Прокофьев
Николай Хрящиков — Ховрин
Михаил Пуговкин — Пирожков
Георгий Юматов — Виктор Ермолаев
Павел Волков — лекарь Ермолаев
Пётр Любешкин — Шапилов
Сергей Петров — Суворов
Николай Свободин — Мордовцев
Павел Павленко — Павел I
Михаил Названов — Александр I
Иван Соловьёв — Нельсон
Иосиф Толчанов — Гамильтон
Елена Кузьмина — Эмма Гамильтон
Владимир Туманов — Фут
Николай Волков — Уильям Питт
Сергей Мартинсон — Фердинанд, король Обеих Сицилий
Ада Войцик — Каролина, королева Обеих Сицилий
Валерий Лекарев — Наполеон
Эммануил Геллер — Мишеру
Борис Бибиков — Спенсер Смит
Павел Шпрингфельд — Орфано
Лев Фричинский — Турчанинов
Описание: Действие фильма происходит на Средиземном море. Эскадра Ушакова совместно с войсками Суворова освобождает Италию от войск Наполеона.
Доп. информация: «Корабли штурмуют бастионы» — вторая часть историко-биографической кинодилогии Михаила Ромма, посвящённой русскому флотоводцу Фёдору Фёдоровичу Ушакову (1744—1817).
Фильм рассказывает о победах российского флота на Средиземном море.
Первая часть — фильм «Адмирал Ушаков». Адмирал Ушаков (Михаил Ромм) [1953 г., историко-биографический, DVDRip]
Источник/Качество: DVDRip
Формат: AVI
Видео кодек: DivX
Аудио кодек: AC3
Видео: 640x480 (1.33:1), DivX Codec 6.8.5/6.9.1, 0.25 bit/pixel, 1951 kbps avg, 0.255 bits/pixel
Аудио: 48 kHz, AC3 Dolby Digital, 2/0 (L,R) ch, 224 kbps
General
Complete name : E:\Фильмы\Художественные\Отечественные фильмы\Военно-исторические\Корабли штурмуют бастионы (Мосфильм 1953г.).avi
Format : AVI
Format/Info : Audio Video Interleave
File size : 1.37 GiB
Duration : 1h 29mn
Overall bit rate : 2 185 Kbps
Director : DVDRip by Devprojman
Writing application : VirtualDubMod 1.5.10.2 (build 2540/release)
Writing library : VirtualDub build 30009/release
Copyright : StreamZone.ru
Video
ID : 0
Format : MPEG-4 Visual
Format settings, BVOP : Yes
Format settings, QPel : No
Format settings, GMC : No warppoints
Format settings, Matrix : Default (H.263)
Muxing mode : Packed bitstream
Codec ID : DX50
Codec ID/Hint : DivX 5
Duration : 1h 29mn
Bit rate : 1 952 Kbps
Width : 640 pixels
Height : 480 pixels
Display aspect ratio : 4:3
Frame rate : 25.000 fps
Resolution : 24 bits
Colorimetry : 4:2:0
Scan type : Progressive
Bits/(Pixel*Frame) : 0.254
Stream size : 1.22 GiB (89%)
Writing library : DivX 6.8.5 (UTC 2009-08-20)
Audio
ID : 1
Format : AC-3
Format/Info : Audio Coding 3
Codec ID : 2000
Duration : 1h 29mn
Bit rate mode : Constant
Bit rate : 224 Kbps
Channel(s) : 2 channels
Channel positions : L R
Sampling rate : 48.0 KHz
Stream size : 144 MiB (10%)
Alignment : Split accross interleaves
Interleave, duration : 40 ms (1.00 video frame)
Interleave, preload duration : 500 ms
Download / Скачать

Хотите скачать бесплатно? Зарегистрируйтесь на сайте (ссылка на регистрацию). Pirat.ca - самый быстрый торрент трекер в рунете!

Как скачивать  ·   Что такое торрент  ·   Рейтинг и ограничения

Пост 07-Ноя-2011 18:36 (спустя 35 минут)

Топик был перенесен из форума Наше Кино в форум Советское кино

Skinwalker
 

Filimonia

Корсар

Пост 12-Ноя-2011 14:10 (спустя 4 дня)

[Q] 

Спасибо!
[Профиль]  [ЛС] 
Показать сообщения:    
Ответить на тему

Текущее время: Сегодня 09:50

Часовой пояс: GMT + 4



Вы не можете начинать темы
Вы не можете отвечать на сообщения
Вы не можете редактировать свои сообщения
Вы не можете удалять свои сообщения
Вы не можете голосовать в опросах
Вы не можете прикреплять файлы к сообщениям
Вы не можете скачивать файлы

▼ Вниз