ML
     
  Уважаемый Гость!
Вы можете поддержать проект и зарегистрироваться у наших партнеров - онлайн-стратегия MyLands. При регистрации в игре Вы получите код, который сможете активировать после регистрации на pirat.ca и получить 1000 дублонов.

Ваш код:
f612af22ea70acf5cbe90707ac5a076d215f8f7f
 
     

Гусарская баллада (Эльдар Рязанов) [1962 г., комедия, музыкальный фильм, DVDRip]

Ответить на тему
 
Автор
Сообщение

Пост 07-Ноя-2011 20:18

[Q] 

K-0-t

Морской Волк

Гусарская баллада
Год выпуска: 1962
Страна: СССР (Мосфильм)
Жанр: комедия, музыкальный фильм
Продолжительность: 01:30:17
Режиссер: Эльдар Рязанов
Сценарий: Александр Гладков, Эльдар Рязанов
В ролях:
Лариса Голубкина — Шурочка Азарова / корнет Азаров
Юрий Яковлев — поручик Дмитрий Ржевский
Николай Крючков — Иван
Игорь Ильинский — фельдмаршал Кутузов
Виктор Кольцов — Азаров
Антоний Ходурский — граф Нурин
Татьяна Шмыга — Луиза Жермон
Лев Поляков — Пелымов
Владимир Ширяев — Винсенто Сальгари, испанский лейтенант
Алексей Полевой — Балмашов
Юрий Белов — гусар
Феликс Яворский — Станкевич, партизан
Владимир Трошин — партизан с гитарой (поёт «Давным-давно»)
Роман Хомятов — партизан с повязкой
Владимир Балон — адъютант Кутузова
Борис Иванов — Дюсьер, французский генерал
Павел Шпрингфельд — Летье, французский офицер
Юрий Киреев — Гусар
Описание: Исторический анекдот, удачно и к месту рассказанный, всегда найдет благодарных слушателей, а, тем более, зрителей. История девицы-корнета, желающей наравне с мужчинами защищать отечество, была счастливо вспомнена драматургом А. Гладковым, воплощена им в комедии «Давным-давно» и экранизирована Э. Рязановым в 1962 — к 150-летнему юбилею победы над Наполеоном.
Все удачно сложилось в этом киноводевиле: и знакомый сюжет, изобилующий приключениями, переодеваниями, интригами, и замечательная, использующая характерные жанровые модели — романса, баллады, гусарской песни — музыка Т. Хренникова, и звездный актерский ансамбль.
Доп. информация: Прообраз Шурочки Азаровой — кавалерист-девица Отечественной войны 1812 года Надежда Дурова.
Источник/Качество: DVDRip
Формат: AVI
Видео кодек: XviD
Аудио кодек: AC3
Видео: 704x512 (1.38:1), 25 fps, XviD MPEG-4, 1851 kbps avg, 0.20 bit/pixel
Аудио: 48 kHz, AC3 Dolby Digital, 3/2 (L,C,R,l,r) + LFE ch, 448 kbps
General
Complete name : E:\Фильмы\Художественные\Отечественные фильмы\Гусарская баллада (Мосфильм 1962г.).avi
Format : AVI
Format/Info : Audio Video Interleave
File size : 1.46 GiB
Duration : 1h 30mn
Overall bit rate : 2 309 Kbps
Movie name : Гусарская баллада
Director : zim2001
Writing application : VirtualDubMod 1.5.10.2 (build 2540/release)
Copyright : torrents.ru
Video
ID : 0
Format : MPEG-4 Visual
Format profile : [email protected]
Format settings, BVOP : Yes
Format settings, QPel : No
Format settings, GMC : No warppoints
Format settings, Matrix : Custom
Codec ID : XVID
Codec ID/Hint : XviD
Duration : 1h 30mn
Bit rate : 1 851 Kbps
Width : 704 pixels
Height : 512 pixels
Display aspect ratio : 1.375
Frame rate : 25.000 fps
Resolution : 24 bits
Colorimetry : 4:2:0
Scan type : Progressive
Bits/(Pixel*Frame) : 0.205
Stream size : 1.17 GiB (80%)
Writing library : XviD 1.2.1 (UTC 2008-12-04)
Audio
ID : 1
Format : AC-3
Format/Info : Audio Coding 3
Codec ID : 2000
Duration : 1h 30mn
Bit rate mode : Constant
Bit rate : 448 Kbps
Channel(s) : 6 channels
Channel positions : Front: L C R, Surround: L R, LFE
Sampling rate : 48.0 KHz
Stream size : 289 MiB (19%)
Alignment : Split accross interleaves
Interleave, duration : 40 ms (1.00 video frame)
Interleave, preload duration : 500 ms
Download / Скачать

Хотите скачать бесплатно? Зарегистрируйтесь на сайте (ссылка на регистрацию). Pirat.ca - самый быстрый торрент трекер в рунете!

Как скачивать  ·   Что такое торрент  ·   Рейтинг и ограничения

Пост 07-Ноя-2011 22:09 (спустя 1 час 51 минута)

Топик был перенесен из форума Наше Кино в форум Советское кино

Skinwalker
 

CHARLI2236

1098

Пост 13-Дек-2011 13:33 (спустя 1 месяц 5 дней)

[Q] 

спасибо

_________________
[Профиль]  [ЛС] 

Ципа

Лоцман

Пост 03-Апр-2012 18:53 (спустя 3 месяца 21 день)

[Q] 

Респект
[Профиль]  [ЛС] 

abc7

Гроза морей

464

Пост 27-Апр-2012 01:04 (спустя 23 дня)

[Q] 

[Профиль]  [ЛС] 

tubuc

Корсар

103

Пост 21-Авг-2016 18:31 (спустя 4 года 3 месяца)

[Q] 

Отличный фильм Спасибо!!!
[Профиль]  [ЛС] 
Показать сообщения:    
Ответить на тему

Текущее время: Сегодня 00:28

Часовой пояс: GMT + 4



Вы не можете начинать темы
Вы не можете отвечать на сообщения
Вы не можете редактировать свои сообщения
Вы не можете удалять свои сообщения
Вы не можете голосовать в опросах
Вы не можете прикреплять файлы к сообщениям
Вы не можете скачивать файлы

▼ Вниз