ML
     
  Уважаемый Гость!
Вы можете поддержать проект и зарегистрироваться у наших партнеров - онлайн-стратегия MyLands. При регистрации в игре Вы получите код, который сможете активировать после регистрации на pirat.ca и получить 1000 дублонов.

Ваш код:
cc3be08b7507661c03e0a2f582d0da3a659ea55a
 
     

На войне как на войне (Виктор Трегубович) [1968 г., военный фильм, драма, DVDRip]

Ответить на тему
 
Автор
Сообщение

Пост 08-Ноя-2011 02:26

[Q] 

K-0-t

Морской Волк

На войне как на войне
Год выпуска: 1968
Страна: СССР (Ленфильм)
Жанр: военный фильм, драма
Продолжительность: 01:25:00
Режиссер: Виктор Трегубович
Сценарий: Виктор Курочкин, Виктор Трегубович
В ролях:
Михаил Кононов — младший лейтенант Малешкин, командир САУ
Олег Борисов — сержант Михаил Домешек, наводчик
Виктор Павлов — старшина Григорий Щербак, механик-водитель
Фёдор Одиноков — ефрейтор Осип Бянкин, заряжающий
Михаил Глузский — полковник Дей, командир танкового полка
Пётр Любешкин — замполит Тимофей Васильевич
Пётр Горин — капитан Сергачёв
Юрий Дубровин — рядовой Громыхало из Подмышки
Борис Аракелов — младший лейтенант Чегиничка
Валентин Зубков — командир полка
Герман Колушкин — Пашка Теленков (Озвучивает Павел Кашлаков)
Борис Сичкин — старший лейтенант Селиванов
Борис Табаровский — лейтенант Беззубцев, новый комбат
Описание: Младший лейтенант Малешкин, выпускник училища, принимает под своё командование опытный экипаж самоходки СУ-100 (по книге — СУ-85). Все подчиненные Малешкина старше его по возрасту и намного опытнее. Авторитет неопытного командира на каждом шагу подвергается испытаниям. Кроме того, Малешкиным очень недоволен командир батареи, он то и дело грозится снять нерасторопного новичка с командования. В экипаже Малешкина и впрямь постоянно случаются разные неприятности: то в машине обнаружится боевая граната с выпавшей чекой, то случится неисправность как раз в момент выхода полка на марш.
  • В фильме показана самоходка СУ-100 (на правом борту закреплён металлический ящик). В действительности СУ-100 впервые приняли участие в боях в Венгрии в январе 1945 г.
  • Картина снималась недалеко от советско-чехословацкой границы, и в ней принимали участие войска Прикарпатского военного округа. Как вспоминает оператор Евгений Мезенцев, в одну из ночей под окнами гостиницы, где разместилась съёмочная группа, долго грохотали танки. А наутро все узнали о вторжении советских войск в Чехословакию. При этом радиостанция Би-би-си сообщила о том, что под видом съёмок фильма «На войне как на войне» СССР сосредоточил на границе с Чехословакией крупные танковые соединения…[1]
  • В сцене начала первой атаки танков на деревню через поле участвует современный 1968-му году танк Т-62 (по хронометражу 1:06:09).
  • В сцене «самоходки на марше» можно увидеть ГАЗ-69, который начали производить уже после войны (по хронометражу 00:50:26).
  • Немецкие солдаты вооружены автоматами АК.
  • Немецкие танки Тигр-1 имели 88-мм орудие с дульным тормозом. В фильме один из «Тигров» показан без дульного тормоза.
  • После премьеры кинофильма стала популярна песня «По полю танки грохотали»
  • Фильм в некоторой степени не соответствует одноименному произведению. Это касается финала повествования. По книге главный герой повести младший лейтенант Саня Малешкин погибает после окончания боя за деревню Кодня, убитый шальным осколком минометной мины. В фильме же во время боя от пулемётной очереди погибает наводчик сержант Домешек.
  • Действие фильма происходит летом 1944 г., тогда как в повести — в январе 1944 г. на Правобережной Украине.
  • Танковая дивизия СС «Мертвая голова» в начале лета 1944 г. находилась в Румынии, в конце лета — в Польше. На Украине летом 44-го она не воевала.
  • Источник/Качество: DVDRip
    Формат: AVI
    Видео кодек: XviD
    Аудио кодек: MPEG Audio
    Видео: 704x304 (2.32:1), 25 fps, XviD MPEG-4, 1050 kbps avg, 0.20 bit/pixel
    Аудио: 44.100 kHz, MPEG Layer 3, 2 ch, 96.00 kbps avg
    General
    Complete name : E:\Фильмы\Художественные\Отечественные фильмы\Великая Отечественная война\На войне как на войне (1968г., Ленфильм).avi
    Format : AVI
    Format/Info : Audio Video Interleave
    File size : 703 MiB
    Duration : 1h 25mn
    Overall bit rate : 1 156 Kbps
    Writing application : VirtualDubMod 1.5.10.1 (build 2439/release)
    Writing library : VirtualDubMod build 2439/release
    Video
    ID : 0
    Format : MPEG-4 Visual
    Format profile : [email protected]
    Format settings, BVOP : Yes
    Format settings, QPel : No
    Format settings, GMC : No warppoints
    Format settings, Matrix : Default (H.263)
    Muxing mode : Packed bitstream
    Codec ID : XVID
    Codec ID/Hint : XviD
    Duration : 1h 25mn
    Bit rate : 1 051 Kbps
    Width : 704 pixels
    Height : 304 pixels
    Display aspect ratio : 2.35:1
    Frame rate : 25.000 fps
    Resolution : 24 bits
    Colorimetry : 4:2:0
    Scan type : Progressive
    Bits/(Pixel*Frame) : 0.196
    Stream size : 639 MiB (91%)
    Writing library : XviD 1.1.2 (UTC 2006-11-01)
    Audio
    ID : 1
    Format : MPEG Audio
    Format version : Version 1
    Format profile : Layer 3
    Format_Settings_Mode : Joint stereo / Intensity Stereo + MS Stereo
    Codec ID : 55
    Codec ID/Hint : MP3
    Duration : 1h 24mn
    Bit rate mode : Constant
    Bit rate : 96.0 Kbps
    Channel(s) : 2 channels
    Sampling rate : 44.1 KHz
    Resolution : 16 bits
    Stream size : 58.2 MiB (8%)
    Alignment : Split accross interleaves
    Interleave, duration : 40 ms (1.00 video frame)
    Interleave, preload duration : 500 ms
    Download / Скачать

    Хотите скачать бесплатно? Зарегистрируйтесь на сайте (ссылка на регистрацию). Pirat.ca - самый быстрый торрент трекер в рунете!

    Как скачивать  ·   Что такое торрент  ·   Рейтинг и ограничения

    Пост 08-Ноя-2011 09:35 (спустя 7 часов)

    Топик был перенесен из форума Наше Кино в форум Советское кино

    Skinwalker
     

    baltimor337

    Корсар

    Пост 11-Ноя-2011 17:15 (спустя 3 дня)

    [Q] 

    спс
    [Профиль]  [ЛС] 

    CHARLI2236

    1097

    Пост 13-Дек-2011 13:40 (спустя 1 месяц 1 день)

    [Q] 

    спасибо

    _________________
    [Профиль]  [ЛС] 

    solisitor68

    Лоцман

    Пост 16-Апр-2012 22:18 (спустя 4 месяца 3 дня)

    [Q] 

    классный фильм
    [Профиль]  [ЛС] 

    abc7

    Гроза морей

    464

    Пост 27-Апр-2012 01:02 (спустя 10 дней)

    [Q] 

    [Профиль]  [ЛС] 

    Andik-nn

    Корсар

    Пост 30-Дек-2013 14:12 (спустя 1 год 8 месяцев)

    [Q] 

    Спасибо! Супер!
    [Профиль]  [ЛС] 

    tubuc

    Корсар

    103

    Пост 17-Мар-2014 20:25 (спустя 2 месяца 18 дней)

    [Q] 

    Одна из лучших ролей Кононова Автору респект!!!
    [Профиль]  [ЛС] 
    Показать сообщения:    
    Ответить на тему

    Текущее время: Сегодня 05:07

    Часовой пояс: GMT + 4



    Вы не можете начинать темы
    Вы не можете отвечать на сообщения
    Вы не можете редактировать свои сообщения
    Вы не можете удалять свои сообщения
    Вы не можете голосовать в опросах
    Вы не можете прикреплять файлы к сообщениям
    Вы не можете скачивать файлы

    ▼ Вниз