ML
     
  Уважаемый Гость!
Вы можете поддержать проект и зарегистрироваться у наших партнеров - онлайн-стратегия MyLands. При регистрации в игре Вы получите код, который сможете активировать после регистрации на pirat.ca и получить 1000 дублонов.

Ваш код:
0af2e2107bc9b5dd5ac2c09f9fc25e1a77c43887
 
     

Максим Перепелица (Анатолий Граник) [1955 г., комедия, TVRip]

Ответить на тему
 
Автор
Сообщение

Пост 09-Ноя-2011 15:00

[Q] 

Eterial

Штурман

Максим Перепелица
Год выпуска: 1955
Жанр: комедия
Продолжительность: 01:27:08
Режиссер: Анатолий Граник
В ролях: Леонид Быков, Александр Борисов, Константин Сорокин, Георгий Осипенко, Людмила Сосюра, Таисия Литвиненко, Нина Тамарова, Георгий Вицин, Татьяна Пельтцер, Василий Фушич.
Описание: Веселого парня, деревенского шутника и балагура Максима Перепелицу призывают на службу в армию. Но и там, пытаясь избежать трудностей армейской жизни, он пытается ловчить. Однако открытый добродушный нрав, настоящий характер заставляют парня переосмыслить происходящее с ним. На побывку в родное село, где его дожидается любимая, Максим приезжает в звании младшего сержанта.
Источник/Качество: TVRip
Формат: AVI
Видео кодек: DivX
Аудио кодек: MPEG Audio
Видео: 512x384 (1.33:1), 25 fps, DivX Codec 5.05 ~986 kbps avg, 0.20 bit/pixel
Аудио: 48 kHz, MPEG Layer 3, 2 ch, ~128.00 kbps avg
Format : AVI
Format/Info : Audio Video Interleave
File size : 701 MiB
Duration : 1h 27mn
Overall bit rate : 1 124 Kbps
Movie name : Maksim Perepelica
Writing application : VirtualDubMod 1.5.4.1 (build 2092/release)
Writing library : VirtualDubMod build 2092/release
Video
ID : 0
Format : MPEG-4 Visual
Format settings, BVOP : 1
Format settings, QPel : No
Format settings, GMC : 2 warppoints
Format settings, Matrix : Default (H.263)
Muxing mode : Packed bitstream
Codec ID : DX50
Codec ID/Hint : DivX 5
Duration : 1h 27mn
Bit rate : 987 Kbps
Width : 512 pixels
Height : 384 pixels
Display aspect ratio : 4:3
Frame rate : 25.000 fps
Color space : YUV
Chroma subsampling : 4:2:0
Bit depth : 8 bits
Scan type : Progressive
Compression mode : Lossy
Bits/(Pixel*Frame) : 0.201
Stream size : 615 MiB (88%)
Writing library : DivX 5.0.5 (UTC 2003-04-24)
Audio
ID : 1
Format : MPEG Audio
Format version : Version 1
Format profile : Layer 3
Mode : Joint stereo
Mode extension : MS Stereo
Codec ID : 55
Codec ID/Hint : MP3
Duration : 1h 27mn
Bit rate mode : Constant
Bit rate : 128 Kbps
Channel(s) : 2 channels
Sampling rate : 48.0 KHz
Compression mode : Lossy
Stream size : 79.8 MiB (11%)
Alignment : Aligned on interleaves
Interleave, duration : 40 ms (1.00 video frame)
Interleave, preload duration : 504 ms


Download / Скачать

Хотите скачать бесплатно? Зарегистрируйтесь на сайте (ссылка на регистрацию). Pirat.ca - самый быстрый торрент трекер в рунете!

Как скачивать  ·   Что такое торрент  ·   Рейтинг и ограничения



Последний раз редактировалось: Eterial (2011-11-15 21:25), всего редактировалось 9 раз(а)

Пост 19-Ноя-2011 08:55 (спустя 9 дней)

Топик был перенесен из форума Наше Кино в форум Советское кино

Skinwalker
 

CHARLI2236

1097

Пост 13-Дек-2011 13:52 (спустя 1 месяц 3 дня)

[Q] 

спасибо

_________________
[Профиль]  [ЛС] 

abc7

Гроза морей

464

Пост 06-Фев-2012 01:45 (спустя 1 месяц 23 дня)

[Q] 

[Профиль]  [ЛС] 
Показать сообщения:    
Ответить на тему

Текущее время: Сегодня 00:04

Часовой пояс: GMT + 4



Вы не можете начинать темы
Вы не можете отвечать на сообщения
Вы не можете редактировать свои сообщения
Вы не можете удалять свои сообщения
Вы не можете голосовать в опросах
Вы не можете прикреплять файлы к сообщениям
Вы не можете скачивать файлы

▼ Вниз