ML
     
  Уважаемый Гость!
Вы можете поддержать проект и зарегистрироваться у наших партнеров - онлайн-стратегия MyLands. При регистрации в игре Вы получите код, который сможете активировать после регистрации на pirat.ca и получить 1000 дублонов.

Ваш код:
4fbd9898b6f10799a3e8edf60f31febd2bc15453
 
     

О бедном гусаре замолвите слово (Эльдар Рязанов) [1980 г., Трагикомедия, DVDRip]

Ответить на тему
 
Автор
Сообщение

Пост 17-Ноя-2011 21:35

[Q] 

kufre

Корсар

О бедном гусаре замолвите слово
Год выпуска: 1980
Жанр: Трагикомедия
Продолжительность: 02:40:44
Режиссер: Эльдар Рязанов
В ролях: Олег Басилашвили, Евгений Леонов, Ирина Мазуркевич, Станислав Садальский, Валентин Гафт, Георгий Бурков, Зиновий Гердт, Виктор Павлов, Борис Брондуков, Владимир Носик, Николай Кочегаров, Валерий Погорельцев, Наталья Гундарева, Светлана Немоляева, Лия Ахеджакова, Валентина Талызина, Алекасндр Белявский. Текст читаетАндрей Миронов.
Описание: Небольшой городок взбудоражен вступлением гусарского полка. Любовь, вспыхнувшая между корнетом и юной актрисой, неожиданно сталкивается с интригой, которую плетет петербургский чиновник. Вовлеченный им в коварную игру, погибает отец героини… Но зло в конце концов будет побеждено благородством, верностью и любовью.
Доп. информация: В советское время допустили к показу сокращённую версию фильма. Были вырезаны некоторые сцены, не соответствовавшие советской идеологии.
Полное имя : H:\ШАРА\ВИДЕО\ФИЛЬМЫ\Н А Ш Е\О бедном гусаре замолвите слово (2 серии из 2).1980.XviD.DVDRip\O.bednom.gusare.zamolvite.slovo.(1.seriya.iz.2).1980.XviD.DVDRip.avi
Формат : AVI
Формат/Информация : Audio Video Interleave
Размер файла : 1,37 Гбайт
Продолжительность : 1 ч. 18 м.
Общий поток : 2483 Кбит/сек
Программа кодирования : VirtualDubMod 1.5.4.1 (build 2178/release)
Библиотека кодирования : VirtualDubMod build 2178/release
Видео
Идентификатор : 0
Формат : MPEG-4 Visual
Профиль формата : Advanced [email protected]
Параметр BVOP формата : 1
Параметр QPel формата : Нет
Параметр GMC формата : Без точки перехода
Параметр матрицы формата : Выборочная
Идентификатор кодека : XVID
Идентификатор кодека/Подсказка : XviD
Продолжительность : 1 ч. 18 м.
Битрейт : 2029 Кбит/сек
Ширина : 704 пикс.
Высота : 528 пикс.
Соотношение сторон : 4:3
Частота кадров : 25,000 кадр/сек
Цветовое пространство : YUV
Подвыборка цветности : 4:2:0
Битовая глубина : 8 бит
Тип развёртки : Прогрессивная
Метод сжатия : С потерями
Бит/(Пиксели*Кадры) : 0.218
Размер потока : 1,12 Гбайт (82%)
Библиотека кодирования : XviD 1.1.2 (UTC 2006-11-01)
Аудио
Идентификатор : 1
Формат : AC-3
Формат/Информация : Audio Coding 3
Расширение режима : CM (complete main)
Идентификатор кодека : 2000
Продолжительность : 1 ч. 18 м.
Вид битрейта : Постоянный
Битрейт : 448 Кбит/сек
Каналы : 6 каналов
Расположение каналов : Front: L C R, Side: L R, LFE
Частота : 48,0 КГц
Битовая глубина : 16 бит
Метод сжатия : С потерями
Размер потока : 253 Мбайт (18%)
Выравнивание : Разделение по промежуткам
Продолжительность промежутка : 96 мс. (2,40 видеокадра)
Время предзагрузки промежутка : 96 ms
Язык : Russian
Общее
Полное имя : H:\ШАРА\ВИДЕО\ФИЛЬМЫ\Н А Ш Е\О бедном гусаре замолвите слово (2 серии из 2).1980.XviD.DVDRip\O.bednom.gusare.zamolvite.slovo.(2.seriya.iz.2).1980.XviD.DVDRip.avi
Формат : AVI
Формат/Информация : Audio Video Interleave
Размер файла : 1,37 Гбайт
Продолжительность : 1 ч. 21 м.
Общий поток : 2399 Кбит/сек
Программа кодирования : VirtualDubMod 1.5.4.1 (build 2178/release)
Библиотека кодирования : VirtualDubMod build 2178/release
Видео
Идентификатор : 0
Формат : MPEG-4 Visual
Профиль формата : Advanced [email protected]
Параметр BVOP формата : 1
Параметр QPel формата : Нет
Параметр GMC формата : Без точки перехода
Параметр матрицы формата : Выборочная
Идентификатор кодека : XVID
Идентификатор кодека/Подсказка : XviD
Продолжительность : 1 ч. 21 м.
Битрейт : 1944 Кбит/сек
Ширина : 704 пикс.
Высота : 528 пикс.
Соотношение сторон : 4:3
Частота кадров : 25,000 кадр/сек
Цветовое пространство : YUV
Подвыборка цветности : 4:2:0
Битовая глубина : 8 бит
Тип развёртки : Прогрессивная
Метод сжатия : С потерями
Бит/(Пиксели*Кадры) : 0.209
Размер потока : 1,11 Гбайт (81%)
Библиотека кодирования : XviD 1.1.2 (UTC 2006-11-01)
Аудио
Идентификатор : 1
Формат : AC-3
Формат/Информация : Audio Coding 3
Расширение режима : CM (complete main)
Идентификатор кодека : 2000
Продолжительность : 1 ч. 21 м.
Вид битрейта : Постоянный
Битрейт : 448 Кбит/сек
Каналы : 6 каналов
Расположение каналов : Front: L C R, Side: L R, LFE
Частота : 48,0 КГц
Битовая глубина : 16 бит
Метод сжатия : С потерями
Размер потока : 261 Мбайт (19%)
Выравнивание : Разделение по промежуткам
Продолжительность промежутка : 96 мс. (2,40 видеокадра)
Время предзагрузки промежутка : 96 ms
Язык : Russian
Источник/Качество: DVDRip
Формат: AVI
Видео кодек: XviD
Аудио кодек: AC3
Видео 1 серия: 704x528 (1.33:1), 25 fps, XviD build 46 ~2028 kbps avg, 0.22 bit/pixel
Видео 2 серия: 704x528 (1.33:1), 25 fps, XviD build 46 ~1944 kbps avg, 0.21 bit/pixel
Аудио 1 серия: 48 kHz, AC3 Dolby Digital, 3/2 (L,C,R,l,r) + LFE ch, ~448 kbps
Аудио 2 серия: 48 kHz, AC3 Dolby Digital, 3/2 (L,C,R,l,r) + LFE ch, ~448 kbps



Download / Скачать

Хотите скачать бесплатно? Зарегистрируйтесь на сайте (ссылка на регистрацию). Pirat.ca - самый быстрый торрент трекер в рунете!

Как скачивать  ·   Что такое торрент  ·   Рейтинг и ограничения

Пост 18-Ноя-2011 00:00 (спустя 2 часа 24 минуты)

Топик был перенесен из форума Наше Кино в форум Советское кино

Skinwalker
 

Creed72

9780

Пост 19-Фев-2012 05:40 (спустя 3 месяца 1 день)

[Q] 


_________________
Я мзду не беру. Мне за Державу обидно.(с)
[Профиль]  [ЛС] 

Polosatyk

Корсар

562

Пост 19-Фев-2012 09:29 (спустя 3 часа)

[Q] 

Спасибо
[Профиль]  [ЛС] 

abc7

Гроза морей

464

Пост 27-Апр-2012 05:27 (спустя 2 месяца 7 дней)

[Q] 

[Профиль]  [ЛС] 

CHARLI2236

1092

Пост 31-Май-2012 15:27 (спустя 1 месяц 4 дня)

[Q] 

благодарю

_________________
[Профиль]  [ЛС] 

miner804

Морской Волк

Пост 14-Июл-2012 20:05 (спустя 1 месяц 14 дней)

[Q] 

Спасибо!
[Профиль]  [ЛС] 

A.Net

Корсар

Пост 14-Июл-2012 21:04 (спустя 59 минут)

[Q] 

[Профиль]  [ЛС] 

Skam782712

Шкипер

Пост 16-Ноя-2014 09:38 (спустя 2 года 4 месяца)

[Q] 

Спасибо жена рада будет Автору респект!!! Пиратка рулит!
[Профиль]  [ЛС] 
Показать сообщения:    
Ответить на тему

Текущее время: Сегодня 19:59

Часовой пояс: GMT + 4



Вы не можете начинать темы
Вы не можете отвечать на сообщения
Вы не можете редактировать свои сообщения
Вы не можете удалять свои сообщения
Вы не можете голосовать в опросах
Вы не можете прикреплять файлы к сообщениям
Вы не можете скачивать файлы

▼ Вниз