ML
     
  Уважаемый Гость!
Вы можете поддержать проект и зарегистрироваться у наших партнеров - онлайн-стратегия MyLands. При регистрации в игре Вы получите код, который сможете активировать после регистрации на pirat.ca и получить 1000 дублонов.

Ваш код:
2932e5898d0a27592397f70b82a5834d1e70ea19
 
     

Дуэнья (Михаил Григорьев) [1978 г., комедия, мюзикл, DVDRip]

Ответить на тему
 
Автор
Сообщение

Пост 17-Ноя-2011 22:02

[Q] 

kufre

Корсар

Дуэнья
Год выпуска: 1978
Жанр: комедия, мюзикл
Продолжительность: 01:29:46
Режиссер: Михаил Григорьев
В ролях: Владимир Зельдин, Александр Сафронов, Ирина Муравьева, Марина Ливанова, Александр Король, Евгений Леонов, Татьяна Васильева, Семен Фарада, Любовь Полищук, Владимир Сошальский, Оксана Фомичева, Зоя Белая, Юрий Сучков, Анатолий Кубацкий, Николай Горлов, Федор Савостьянов, Леонид Персиянинов, Виктор Махов, Леонид Недович, Евгений Быкадоров
Описание: По пьесе Ричарда Б. Шеридана. Две пары влюблённых совсем запутались в интригах. Всё перемешалось: страдания и радости, смех и слёзы. Но молодым героям по душе этот водоворот событий и чувств. Ни в чём не уступает им и далеко не юная дуэнья. Именно благодаря её темпераменту и обаянию всё заканчивается благополучно. В том числе и для неё самой..
Полное имя : H:\ШАРА\ВИДЕО\ФИЛЬМЫ\Н А Ш Е\Дуэнья 1978.DivX.DVDRip.avi
Формат : AVI
Формат/Информация : Audio Video Interleave
Размер файла : 1,37 Гбайт
Продолжительность : 1 ч. 27 м.
Общий поток : 2239 Кбит/сек
Программа кодирования : VirtualDubMod 1.5.4.1 (build 2178/release)
Библиотека кодирования : VirtualDubMod build 2178/release
Видео
Идентификатор : 0
Формат : MPEG-4 Visual
Параметр BVOP формата : 1
Параметр QPel формата : Нет
Параметр GMC формата : Без точки перехода
Параметр матрицы формата : Default (H.263)
Режим смешивания : Сжатый битовый поток
Идентификатор кодека : DX50
Идентификатор кодека/Подсказка : DivX 5
Продолжительность : 1 ч. 27 м.
Битрейт : 1785 Кбит/сек
Ширина : 720 пикс.
Высота : 544 пикс.
Соотношение сторон : 4:3
Частота кадров : 25,000 кадр/сек
Цветовое пространство : YUV
Подвыборка цветности : 4:2:0
Битовая глубина : 8 бит
Тип развёртки : Прогрессивная
Метод сжатия : С потерями
Бит/(Пиксели*Кадры) : 0.182
Размер потока : 1,09 Гбайт (80%)
Библиотека кодирования : DivX 6.8.2 (UTC 2008-05-17)
Аудио
Идентификатор : 1
Формат : AC-3
Формат/Информация : Audio Coding 3
Расширение режима : CM (complete main)
Идентификатор кодека : 2000
Продолжительность : 1 ч. 27 м.
Вид битрейта : Постоянный
Битрейт : 448 Кбит/сек
Каналы : 6 каналов
Расположение каналов : Front: L C R, Side: L R, LFE
Частота : 48,0 КГц
Битовая глубина : 16 бит
Метод сжатия : С потерями
Задержка видео : 283 мс.
Размер потока : 280 Мбайт (20%)
Выравнивание : Разделение по промежуткам
Продолжительность промежутка : 96 мс. (2,40 видеокадра)
Время предзагрузки промежутка : 96 ms
Язык : Russian
Источник/Качество: DVDRip
Формат: AVI
Видео кодек: DivX
Аудио кодек: AC3
Видео: 720x544 (1.32:1), 25 fps, DivX Codec 6.8.2 ~1784 kbps avg, 0.18 bit/pixel
Аудио: 48 kHz, AC3 Dolby Digital, 3/2 (L,C,R,l,r) + LFE ch, ~448 kbps



Download / Скачать

Хотите скачать бесплатно? Зарегистрируйтесь на сайте (ссылка на регистрацию). Pirat.ca - самый быстрый торрент трекер в рунете!

Как скачивать  ·   Что такое торрент  ·   Рейтинг и ограничения

Пост 18-Ноя-2011 00:01 (спустя 1 час 58 минут)

Топик был перенесен из форума Наше Кино в форум Советское кино

Skinwalker
 

Kodeks50

Шкипер

Пост 25-Мар-2013 21:36 (спустя 1 год 4 месяца)

[Q] 

Прошу сидеров вернуться на раздачу! Негоже такой замечательный фильм превращать в "мёртвую" раздачу.
[Профиль]  [ЛС] 

kufre ®

Корсар

3086

Пост 25-Мар-2013 23:59 (спустя 2 часа 22 минуты)

[Q] 

Сидеры на месте ad

_________________
[Профиль]  [ЛС] 

Kodeks50

Шкипер

Пост 08-Апр-2013 22:08 (спустя 13 дней)

[Q] 

Гном вернулся — Дома нет.
Дом вернулся — Гнома нет.

Я пришёл скачать фильм, а на раздаче опять никого нет (1 день 4 часа). Не вовремя я пришёл :-)
[Профиль]  [ЛС] 
Показать сообщения:    
Ответить на тему

Текущее время: Сегодня 08:02

Часовой пояс: GMT + 4



Вы не можете начинать темы
Вы не можете отвечать на сообщения
Вы не можете редактировать свои сообщения
Вы не можете удалять свои сообщения
Вы не можете голосовать в опросах
Вы не можете прикреплять файлы к сообщениям
Вы не можете скачивать файлы

▼ Вниз