ML
     
  Уважаемый Гость!
Вы можете поддержать проект и зарегистрироваться у наших партнеров - онлайн-стратегия MyLands. При регистрации в игре Вы получите код, который сможете активировать после регистрации на pirat.ca и получить 1000 дублонов.

Ваш код:
db0e0ad91548759ffeb9bb88bed405e1a4b3c165
 
     

Одиноким предоставляется общежитие (Самсон Самсонов) [1983 г., комедия, мелодрама, DVDRip]

Ответить на тему
 
Автор
Сообщение

Пост 18-Ноя-2011 17:39

[Q] 

kufre

Корсар

Одиноким предоставляется общежитие
Год выпуска: 1983
Жанр: комедия, мелодрама
Продолжительность: 01:23.44
Режиссер: Самсон Самсонов
В ролях: Наталья Гундарева, Александр Михайлов, Тамара Сёмина, Фрунзе Мкртчян, Елена Драпеко, Виктор Павлов, Татьяна Божок, Татьяна Агафонова, Елена Майорова, Вера Трофимова, Елена Скороходова (Ташкова), Людмила Коныгина, Елена Антонова, Мария Скворцова, Людмила Шевель, Владимир Симонов
Описание: В общежитие ткачих комендантом направляется бывший моряк. Он сразу же узнает, что душой вверенного ему коллектива является Вера Голубева, занимающаяся устройством личной жизни своих подруг. «Сваха» по призванию, она организовала нечто вроде бесплатного брачного агентства, собирая данные о потенциальных женихах со всей страны. Между Верой и новым комендантом отношения поначалу не складываются. Но потом он влюбляется в эту обаятельную и деятельную женщину. Однажды в свадебной машине будут и они с Верой…
Полное имя : H:\ШАРА\ВИДЕО\ФИЛЬМЫ\Н А Ш Е\Одиноким предоставляется общежитие.avi
Формат : AVI
Формат/Информация : Audio Video Interleave
Размер файла : 1,87 Гбайт
Продолжительность : 1 ч. 23 м.
Общий поток : 3199 Кбит/сек
Программа кодирования : VirtualDubMod 1.5.4.1 (build 2178/release)
Библиотека кодирования : VirtualDub build 22945/release
Видео
Идентификатор : 0
Формат : MPEG-4 Visual
Параметр BVOP формата : 1
Параметр QPel формата : Нет
Параметр GMC формата : Без точки перехода
Параметр матрицы формата : Default (H.263)
Режим смешивания : Сжатый битовый поток
Идентификатор кодека : DX50
Идентификатор кодека/Подсказка : DivX 5
Продолжительность : 1 ч. 23 м.
Битрейт : 2997 Кбит/сек
Ширина : 720 пикс.
Высота : 384 пикс.
Соотношение сторон : 1,875
Частота кадров : 25,000 кадр/сек
Цветовое пространство : YUV
Подвыборка цветности : 4:2:0
Битовая глубина : 8 бит
Тип развёртки : Прогрессивная
Метод сжатия : С потерями
Бит/(Пиксели*Кадры) : 0.434
Размер потока : 1,75 Гбайт (94%)
Библиотека кодирования : DivX 6.1.0 (UTC 2005-12-12)
Аудио
Идентификатор : 1
Формат : AC-3
Формат/Информация : Audio Coding 3
Расширение режима : CM (complete main)
Идентификатор кодека : 2000
Продолжительность : 1 ч. 23 м.
Вид битрейта : Постоянный
Битрейт : 192 Кбит/сек
Каналы : 2 канала
Расположение каналов : Front: L R
Частота : 48,0 КГц
Битовая глубина : 16 бит
Метод сжатия : С потерями
Размер потока : 115 Мбайт (6%)
Выравнивание : Разделение по промежуткам
Продолжительность промежутка : 40 мс. (1,00 видеокадр)
Время предзагрузки промежутка : 500 ms
Источник/Качество: DVDRip
Формат: AVI
Видео кодек: DivX
Аудио кодек: AC3
Видео: 720x384 (1.88:1), 25 fps, DivX Codec 6.1 ~2997 kbps avg, 0.43 bit/pixel
Аудио: 48 kHz, AC3 Dolby Digital, 2/0 (L,R) ch, ~192 kbps




Download / Скачать

Хотите скачать бесплатно? Зарегистрируйтесь на сайте (ссылка на регистрацию). Pirat.ca - самый быстрый торрент трекер в рунете!

Как скачивать  ·   Что такое торрент  ·   Рейтинг и ограничения

Пост 18-Ноя-2011 20:46 (спустя 3 часа)

Топик был перенесен из форума Наше Кино в форум Советское кино

goxakrauter
 

abc7

Гроза морей

464

Пост 06-Фев-2012 18:23 (спустя 2 месяца 18 дней)

[Q] 

[Профиль]  [ЛС] 

Creed72

9783

Пост 19-Фев-2012 05:40 (спустя 12 дней)

[Q] 


_________________
Я мзду не беру. Мне за Державу обидно.(с)
[Профиль]  [ЛС] 

Polosatyk

Корсар

563

Пост 19-Фев-2012 09:34 (спустя 3 часа)

[Q] 

[Профиль]  [ЛС] 

mrdim-CHEHOV

Флибустьер

Пост 02-Мар-2012 14:20 (спустя 12 дней)

[Q] 

спасибо!!!стал забывать уже названия... cs aa
----
случайно не напомните как назывался фильм с Александром Михайловым...где он забирает своего ребенка вместе с чужими и собаку в придачу-на север? ct

_________________
Все будет не так, как мы решим. Все будет тогда, когда мы решимся.
[Профиль]  [ЛС] 

zetrob

Легенда

Пост 02-Мар-2012 15:12 (спустя 52 минуты)

[Q] 

----
случайно не напомните как назывался фильм с Александром Михайловым...где он забирает своего ребенка вместе с чужими и собаку в придачу-на север? ct
Называется "Мужики." Очень хорошее кино. Здесь имеется.

_________________

[Профиль]  [ЛС] 

mrdim-CHEHOV

Флибустьер

Пост 08-Мар-2012 10:06 (спустя 5 дней)

[Q] 

----
случайно не напомните как назывался фильм с Александром Михайловым...где он забирает своего ребенка вместе с чужими и собаку в придачу-на север? ct
Называется "Мужики." Очень хорошее кино. Здесь имеется.
спасибо!заберу в коллекцию.... ay

_________________
Все будет не так, как мы решим. Все будет тогда, когда мы решимся.
[Профиль]  [ЛС] 

K_sined

Штурман

Пост 12-Мар-2012 23:47 (спустя 4 дня)

[Q] 

[Профиль]  [ЛС] 

CHARLI2236

1098

Пост 31-Май-2012 15:34 (спустя 2 месяца 18 дней)

[Q] 

благодарю

_________________
[Профиль]  [ЛС] 

voska222

Лоцман

Пост 04-Янв-2013 16:59 (спустя 7 месяцев 4 дня)

[Q] 

[Профиль]  [ЛС] 

mrdim-CHEHOV

Флибустьер

Пост 08-Янв-2013 14:55 (спустя 3 дня)

[Q] 

восстановил эту раздачу!снес систему,буду восстанавливать по требованию... aa db

_________________
Все будет не так, как мы решим. Все будет тогда, когда мы решимся.
[Профиль]  [ЛС] 

UncleFather

Легенда

Пост 24-Мар-2013 20:59 (спустя 2 месяца 16 дней)

[Q] 


_________________
Одни боялись Пью, другие - Билли Бонса, а меня... меня боялся сам Флинт
[Профиль]  [ЛС] 

NektoWaso

Флибустьер

Пост 04-Ноя-2013 14:20 (спустя 7 месяцев 10 дней)

[Q] 

замечательное доброе кино! рекомендуется!!
[Профиль]  [ЛС] 

matkovsky

Штурман

Пост 20-Фев-2014 20:01 (спустя 3 месяца 16 дней)

[Q] 

скорость скачивания в среднем 5 кб/с!! А в чём собсно дело?

_________________
– Стригу котов. Возможна кастрация.как получится...
[Профиль]  [ЛС] 

EDVAR

Легенда

Пост 20-Фев-2014 22:12 (спустя 2 часа 11 минут)

[Q] 

Очень хороший фильм!

_________________
"Как других судить-вы судьи.Как себя-вы адвокаты"
[Профиль]  [ЛС] 

nonamenm

Штурман

Пост 01-Мар-2014 12:38 (спустя 8 дней)

[Q] 

Спасибо ! Очень хороший фильм !
[Профиль]  [ЛС] 
Показать сообщения:    
Ответить на тему

Текущее время: Сегодня 08:05

Часовой пояс: GMT + 4



Вы не можете начинать темы
Вы не можете отвечать на сообщения
Вы не можете редактировать свои сообщения
Вы не можете удалять свои сообщения
Вы не можете голосовать в опросах
Вы не можете прикреплять файлы к сообщениям
Вы не можете скачивать файлы

▼ Вниз