ML
     
  Уважаемый Гость!
Вы можете поддержать проект и зарегистрироваться у наших партнеров - онлайн-стратегия MyLands. При регистрации в игре Вы получите код, который сможете активировать после регистрации на pirat.ca и получить 1000 дублонов.

Ваш код:
a6d1ef7ff63e237add5a4c8b21d8aa937c5e9b4b
 
     

Человек ниоткуда (Эльдар Рязанов, Никита Орлов) [1961 г., фантастика, комедия, DVDRip]

Ответить на тему
 
Автор
Сообщение

Пост 18-Ноя-2011 19:04

[Q] 

kufre

Корсар

Человек ниоткуда
Год выпуска: 1961
Жанр: фантастика, комедия
Продолжительность: 01:16:44
Режиссер: Эльдар Рязанов, Никита Орлов
В ролях: Сергей Юрский, Юрий Яковлев, Людмила Гурченко, Юрий Белов, Анатолий Адоскин, Антоний Ходурский, Нинель Мышкова, Владимир Муравьев, Петр Савин, Галина Степанова, Анатолий Папанов, Юрий Никулин
Описание: Комедия приключений дикаря из фантастического племени тапи, начавшаяся с неожиданного провала в пропасть молодого геолога антропологической экспедиции Владимира Поражаева. Впрочем Владимир давно подозревал о существовании этого племени, что и было главной причиной его раздора с начальником экспедиции Крохалевым. Используя свое интеллектуальное превосходство, геолог освобождается от дикарей и с Чудаком возвращается в Москву…
Формат : AVI
Формат/Информация : Audio Video Interleave
Размер файла : 1,07 Гбайт
Продолжительность : 1 ч. 16 м.
Общий поток : 1990 Кбит/сек
Программа кодирования : VirtualDubMod 1.5.10.2 (build 2540/release)
Библиотека кодирования : VirtualDubMod build 2540/release
Видео
Идентификатор : 0
Формат : MPEG-4 Visual
Профиль формата : Advanced [email protected]
Параметр BVOP формата : 1
Параметр QPel формата : Нет
Параметр GMC формата : Без точки перехода
Параметр матрицы формата : Выборочная
Идентификатор кодека : XVID
Идентификатор кодека/Подсказка : XviD
Продолжительность : 1 ч. 16 м.
Битрейт : 1852 Кбит/сек
Ширина : 720 пикс.
Высота : 544 пикс.
Соотношение сторон : 4:3
Частота кадров : 25,000 кадр/сек
Цветовое пространство : YUV
Подвыборка цветности : 4:2:0
Битовая глубина : 8 бит
Тип развёртки : Прогрессивная
Метод сжатия : С потерями
Бит/(Пиксели*Кадры) : 0.189
Размер потока : 1017 Мбайт (93%)
Библиотека кодирования : XviD 1.1.2 (UTC 2006-11-01)
Аудио
Идентификатор : 1
Формат : MPEG Audio
Версия формата : Version 1
Профиль формата : Layer 3
Режим : Joint stereo
Расширение режима : MS Stereo
Идентификатор кодека : 55
Идентификатор кодека/Подсказка : MP3
Продолжительность : 1 ч. 16 м.
Вид битрейта : Постоянный
Битрейт : 128 Кбит/сек
Каналы : 2 канала
Частота : 48,0 КГц
Метод сжатия : С потерями
Размер потока : 70,3 Мбайт (6%)
Выравнивание : Разделение по промежуткам
Продолжительность промежутка : 40 мс. (1,00 видеокадр)
Время предзагрузки промежутка : 500 ms
Источник/Качество: DVDRip
Формат: AVI
Видео кодек: XviD
Аудио кодек: MP3
Видео: 720x544 (1.32:1), 25 fps, XviD build 46 ~1852 kbps avg, 0.19 bit/pixel
Аудио: 48 kHz, MPEG Layer 3, 2 ch, ~128.00 kbps avg



Download / Скачать

Хотите скачать бесплатно? Зарегистрируйтесь на сайте (ссылка на регистрацию). Pirat.ca - самый быстрый торрент трекер в рунете!

Как скачивать  ·   Что такое торрент  ·   Рейтинг и ограничения



Последний раз редактировалось: kufre (2011-11-18 20:01), всего редактировалось 1 раз

dsfas

Корсар

313

Пост 18-Ноя-2011 19:11 (спустя 6 минут)

[Q] 

Хороший фильм.
З.Ы: удали строчку полное имя из медиаинфа.
З.Ы.Ы: а форум-то потихоньку преображается, и мне это нравится(Админы - физкульт привет).

_________________
[Профиль]  [ЛС] 

Пост 19-Ноя-2011 08:49 (спустя 13 часов)

Топик был перенесен из форума Наше Кино в форум Советское кино

Skinwalker
 

CHARLI2236

1089

Пост 05-Ноя-2012 17:44 (спустя 11 месяцев 16 дней)

[Q] 

благодарю

_________________
[Профиль]  [ЛС] 

antis1962

Корсар

Пост 12-Ноя-2012 02:55 (спустя 6 дней)

[Q] 

Спасибо!!!
[Профиль]  [ЛС] 

LORD OR

Корсар

Пост 12-Ноя-2012 21:27 (спустя 18 часов)

[Q] 

[Профиль]  [ЛС] 

reliz82

Шкипер

49

Пост 09-Дек-2012 21:52 (спустя 27 дней)

[Q] 

Первый раз смотрел его в начале 90-х. Ржал, как дурной. Сейчас уже над ним так не смеюсь, но смотрю, когда показывают по ТВ
[Профиль]  [ЛС] 

UncleFather

Легенда

Пост 24-Мар-2013 21:06 (спустя 3 месяца 14 дней)

[Q] 


_________________
Одни боялись Пью, другие - Билли Бонса, а меня... меня боялся сам Флинт
[Профиль]  [ЛС] 
Показать сообщения:    
Ответить на тему

Текущее время: Сегодня 13:33

Часовой пояс: GMT + 4



Вы не можете начинать темы
Вы не можете отвечать на сообщения
Вы не можете редактировать свои сообщения
Вы не можете удалять свои сообщения
Вы не можете голосовать в опросах
Вы не можете прикреплять файлы к сообщениям
Вы не можете скачивать файлы

▼ Вниз